Оля Полякова - Концерт в Stereo Plaza (2015) DVB

 
Author Message

BOSS ®

Gender:

Longevity: 5 years 4 months

Posts: 14255

Location: ODESSA



: 22 ()

Top Seeder 3 (1) Top Keeper 2 (1) Top Keeper 1 (1)
Торрент-статистика

Post 23-Jan-2018 19:58

[Quote]

Исполнитель/Группа: Оля Полякова
Жанр: POP
Год выпуска: 2015
Продолжительность: 01:26:29
Описание: Оля Полякова выпускница Киевского национального университета культуры по классу эстрадного вокала и Киевской национальной музыкальной академии Украины имени П. И. Чайковского, имеет диплом оперной певицы. Диапазон голоса — 3 октавы. Как утверждает певица, последним и громким аккордом в процессе её обучения стал мастер-класс у самого Сета Рикса, известного тем, что он преподавал вокал таким легендам, как Майкл Джексон, Уитни Хьюстон и Мадонна.
Формат: MKV
Качество: DVB
Видео кодек: H.264
Аудио кодек: MP2
Видео: H.264, ~1 700 Kbps, 720x576@1024x576 (16:9), 25fps
Аудио: MP2, 48000Hz, 2ch, 192 kbps

Треклист

01. Вступление
02. "Kiev Style (Пум-Пум)"
03. Разговор с залом
04. "Мальчикам ЭТО нравится"
05. Разговор с залом
06. "Суперблондинка"
07. Разговор с залом "Барабан порвался..."
08. "90-60-90"
09. "Шлёпки" (Оперная версия)
10. "Асталависта, Сепаратиста!"
11. Разговор с залом
12. "Любовь Это (Пришла любовь)"
13. Интро "Год Козы уходит. Привет, Обезьяна!"
14. "С новым Годом!"
15. Интро (Смена Имиджа)
16. "Люли"
17. "Любовь-Морковь"
18. "Цветочек Аленький"
19. Разговор с залом "Что хотите? Шлёпки?!!"
20. "Шлёпки"
21. "Плавочки"
22. Интро (Смена имиджа)
23. "Брошенный Котёня"
24. Интро "Оленуся"
25. "Первое Лето без него"
26. "Шлёпки" на БИС!
27. Прощание

MedaInfo

Polyakova_2015.mkv
Format : Matroska
Format version : Version 4 / Version 2
File size : 1.20 GiB
Duration : 1 h 26 min
Overall bit rate : 1 981 kb/s
Encoded date : UTC 2018-01-21 21:40:02
Writing application : mkvmerge v8.3.0 ('Over the Horizon') 64bit
Writing library : libebml v1.3.1 + libmatroska v1.4.2
Video
ID : 1
Format : AVC
Format/Info : Advanced Video Codec
Format profile : Main@L3
Format settings : CABAC / 4 Ref Frames
Format settings, CABAC : Yes
Format settings, RefFrames : 4 frames
Format settings, GOP : M=4, N=24
Codec ID : V_MPEG4/ISO/AVC
Duration : 1 h 26 min
Bit rate : 1 787 kb/s
Width : 720 pixels
Height : 576 pixels
Display aspect ratio : 16:9
Original display aspect ratio : 16:9
Frame rate mode : Constant
Frame rate : 25.000 FPS
Standard : PAL
Color space : YUV
Chroma subsampling : 4:2:0
Bit depth : 8 bits
Scan type : MBAFF
Scan type, store method : Interleaved fields
Scan order : Top Field First
Bits/(Pixel*Frame) : 0.172
Stream size : 1.08 GiB (90%)
Default : Yes
Forced : No
Color range : Limited
Color primaries : BT.601 PAL
Transfer characteristics : BT.470 System B, BT.470 System G
Matrix coefficients : BT.470 System B, BT.470 System G
Audio
ID : 2
Format : MPEG Audio
Format version : Version 1
Format profile : Layer 2
Codec ID : A_MPEG/L2
Codec ID/Hint : MP2
Duration : 1 h 26 min
Bit rate mode : Constant
Bit rate : 192 kb/s
Channel(s) : 2 channels
Sampling rate : 48.0 kHz
Frame rate : 41.667 FPS (1152 SPF)
Compression mode : Lossy
Delay relative to video : -120 ms
Stream size : 119 MiB (10%)
Default : Yes
Forced : No

Скриншоты

[Profile] [PM]
Кто просматривает тему:

Display posts from previous:    

The time now is: Today 04:21

All times are GMT



You cannot post new topics in this forum
You cannot reply to topics in this forum
You cannot edit your posts in this forum
You cannot delete your posts in this forum
You cannot vote in polls in this forum
You cannot attach files in this forum
You cannot download files in this forum