Ольга [01-20 из 20] (2016) WEB-DL 720p

 
Автор Сообщение

достали все ®

Пол:

Стаж: 1 год 8 месяцев

Сообщений: 6527



Награды: 12 (Подробнее)

За внесенный вклад в развитие сайта (Количество: 1) Mega Seeder 1 (Количество: 1) Mega Seeder 2 (Количество: 1)
Торрент-статистика

Создавать темы 06-Окт-2016 06:09

[Цитировать]

Информация о фильме
Оригинальное название: Ольга
Год выпуска: 2016
Жанр: Комедия, драма
Режиссёр: Алексей Нужный, Игорь Волошин
В ролях: Яна Троянова, Василий Кортуков, Алина Алексеева, Ксения Суркова, Сергей Романович, Максим Костромыкин, Фархад Гусейнов, Борис Дергачев, Александр Шам, Александр Никольский
Описание:
Ольга — обычная русская женщина, которая одна «воспитывает» детей от разных браков, отца-алкоголика и бесшабашную сестру. При этом она остаётся жизнерадостной, сохраняет оптимизм и верит в «светлое» будущее.

Выпущено: Россия, Good Story Media
Продолжительность: ~ 00:23:00 / Серия
Файл
Кодек: MPEG-4 AVC
Качество: WEB-DL 720p
Видео: MPEG-4 AVC, 1280x720 (16:9), ~ 3500 Кбит/с, 25 кадр/с
Аудио: Русский, Dolby AC3, 48000 Гц, 192 Кбит/с, 2 канала
Перевод: Не требуется

MediaInfo

General
Unique ID : 221839142631026769855702607645303028687 (0xA6E4AA2DE8EB32EC92D7E81BCA5EBBCF)
Complete name : Ol'ga.s01.e01.2016.WEB-DL.720p.mkv
Format : Matroska
Format version : Version 4 / Version 2
File size : 600 MiB
Duration : 22mn 15s
Overall bit rate : 3 770 Kbps
Encoded date : UTC 2016-09-05 21:28:19
Writing application : mkvmerge v7.9.0 ('Birds') 64bit
Writing library : libebml v1.3.1 + libmatroska v1.4.2
Video
ID : 1
Format : AVC
Format/Info : Advanced Video Codec
Format profile : High@L3.1
Format settings, CABAC : Yes
Format settings, ReFrames : 1 frame
Format settings, GOP : M=1, N=12
Codec ID : V_MPEG4/ISO/AVC
Duration : 22mn 15s
Bit rate : 3 503 Kbps
Width : 1 280 pixels
Height : 720 pixels
Display aspect ratio : 16:9
Frame rate mode : Constant
Frame rate : 25.000 fps
Standard : Component
Color space : YUV
Chroma subsampling : 4:2:0
Bit depth : 8 bits
Scan type : Progressive
Bits/(Pixel*Frame) : 0.152
Stream size : 558 MiB (93%)
Language : Russian
Default : Yes
Forced : No
Color range : Limited
Audio
ID : 2
Format : AC-3
Format/Info : Audio Coding 3
Mode extension : CM (complete main)
Format settings, Endianness : Big
Codec ID : A_AC3
Duration : 22mn 15s
Bit rate mode : Constant
Bit rate : 192 Kbps
Channel(s) : 2 channels
Channel positions : Front: L R
Sampling rate : 48.0 KHz
Bit depth : 16 bits
Compression mode : Lossy
Stream size : 30.6 MiB (5%)
Language : Russian
Default : Yes
Forced : No

Скриншоты


Релиз от: ivandubskoj
[Профиль] [ЛС]
Кто просматривает тему:

Форум Тема Автор Размер
Pop (Поп) Ольга Горбачёва - Благо дарю - 2015, MP3, 320 kbps достали все 147 MB
Rock (Рок) Ольга Кормухина - Соль - 2016, MP3, 320 kbps достали все 92 MB
Фильмы (HD Rips | 720p, 1080p) 45 секунд (Владимир Басов мл., Ольга Басова) [2013, Россия, драма, мелодрама, HDTVRip 720p] TorrentFilm 2.91 GB
Фильмы (HD Rips | 720p, 1080p) 45 секунд (Владимир Басов мл., Ольга Басова) [2013, Россия, мелодрама, HDTV 1080i] TorrentFilm 6.31 GB
Фильмы (DVD 5/9) Бабы рязанские (Ольга Преображенская, Иван Правов) [1927, СССР, социальная драма, DVD5 (Custom)] [Немое кино] интертитры Fr Sub Rus TorrentFilm 3.31 GB
Фильмы 2006-2008 года Бобро поржаловать! / Bienvenue chez les Ch\'tis (Дэни Бун / Dany Boon) [2008, Франция, Комедия, BDRip] Dub (Вольга) + DVO TorrentFilm 2.18 GB
Отечественные мультфильмы Богатырша (Ольга Лопато) [2015. Мультфильм] WEB-DLRip] [Tunes] BOSS 1.37 GB
Разная литература Виктор Страшнов, Ольга Страшнова | Строим современный загородный дом. Современные материалы (2015) [FB2] достали все 10 MB
Показать сообщения:    

Текущее время: Сегодня 17:58

Часовой пояс: GMT



Вы не можете начинать темы
Вы не можете отвечать на сообщения
Вы не можете редактировать свои сообщения
Вы не можете удалять свои сообщения
Вы не можете голосовать в опросах
Вы не можете прикреплять файлы к сообщениям
Вы не можете скачивать файлы