Ольга [01-20 из 20] (2016) WEB-DLRip

 
Автор Сообщение

достали все ®

Пол:

Стаж: 1 год 8 месяцев

Сообщений: 6545



Награды: 12 (Подробнее)

Mega Seeder 5 (Количество: 1) Top Releaser 2 (Количество: 1) Mega Seeder 2 (Количество: 1)
Торрент-статистика

Создавать темы 06-Окт-2016 06:02

[Цитировать]

Информация о фильме
Оригинальное название: Ольга
Год выпуска: 2016
Жанр: Комедия, драма
Режиссеры: Алексей Нужный, Игорь Волошин
В ролях: Яна Троянова, Василий Кортуков, Алина Алексеева, Ксения Суркова, Сергей Романович, Максим Костромыкин, Фархад Гусейнов, Борис Дергачев, Александр Шам, Александр Никольский
О фильме:
Ольга — обычная русская женщина, которая одна «воспитывает» детей от разных браков, отца-алкоголика и бесшабашную сестру. При этом она остаётся жизнерадостной, сохраняет оптимизм и верит в «светлое» будущее.

Страна: Россия
Студия: Кинокомпания «Стар Гелакси»
Продолжительность: 20 x ~ 00:22:00
Перевод: Не требуется
Файл
Формат: AVI
Качество: WEB-DLRip
Видео: XviD build 73, 688x384 (16:9), 25.000 fps, ~ 1250 Kbps (~ 0.190 bit/pixel)
Звук: 48.0 kHz, MP3, 2/0 ch, 128 kbps
Субтитры: нет

МедиаИнфо

General
Complete name : Oljga.2016.XviD.WEB-DLRip.by.GeneralFilmSerija.01.avi
Format : AVI
Format/Info : Audio Video Interleave
File size : 223 MiB
Duration : 21mn 45s
Overall bit rate : 1 434 Kbps
Writing application : VirtualDubMod 1.5.10.3 | www.virtualdub-fr.org || (build 2550/release)
Writing library : VirtualDubMod build 2550/release
Video
ID : 0
Format : MPEG-4 Visual
Format profile : Advanced Simple@L5
Format settings, BVOP : 1
Format settings, QPel : No
Format settings, GMC : No warppoints
Format settings, Matrix : Custom
Codec ID : XVID
Codec ID/Hint : XviD
Duration : 21mn 45s
Bit rate : 1 297 Kbps
Width : 688 pixels
Height : 384 pixels
Display aspect ratio : 16:9
Frame rate : 25.000 fps
Color space : YUV
Chroma subsampling : 4:2:0
Bit depth : 8 bits
Scan type : Progressive
Compression mode : Lossy
Bits/(Pixel*Frame) : 0.196
Stream size : 202 MiB (90%)
Writing library : XviD 73
Audio
ID : 1
Format : MPEG Audio
Format version : Version 1
Format profile : Layer 3
Codec ID : 55
Codec ID/Hint : MP3
Duration : 21mn 45s
Bit rate mode : Constant
Bit rate : 128 Kbps
Channel(s) : 2 channels
Sampling rate : 48.0 KHz
Compression mode : Lossy
Stream size : 19.9 MiB (9%)
Alignment : Aligned on interleaves
Interleave, duration : 40 ms (1.00 video frame)
Interleave, preload duratio : 504 ms
Writing library : LAME3.99r
Encoding settings : -m s -V 4 -q 0 -lowpass 17 -b 128

Скриншоты



Релиз от:
[Профиль] [ЛС]
Кто просматривает тему:

Форум Тема Автор Размер
Pop (Поп) Ольга Горбачёва - Благо дарю - 2015, MP3, 320 kbps достали все 147 MB
Rock (Рок) Ольга Кормухина - Соль - 2016, MP3, 320 kbps достали все 92 MB
Фильмы (HD Rips | 720p, 1080p) 45 секунд (Владимир Басов мл., Ольга Басова) [2013, Россия, драма, мелодрама, HDTVRip 720p] TorrentFilm 2.91 GB
Фильмы (HD Rips | 720p, 1080p) 45 секунд (Владимир Басов мл., Ольга Басова) [2013, Россия, мелодрама, HDTV 1080i] TorrentFilm 6.31 GB
Фильмы (DVD 5/9) Бабы рязанские (Ольга Преображенская, Иван Правов) [1927, СССР, социальная драма, DVD5 (Custom)] [Немое кино] интертитры Fr Sub Rus TorrentFilm 3.31 GB
Фильмы 2006-2008 года Бобро поржаловать! / Bienvenue chez les Ch\'tis (Дэни Бун / Dany Boon) [2008, Франция, Комедия, BDRip] Dub (Вольга) + DVO TorrentFilm 2.18 GB
Отечественные мультфильмы Богатырша (Ольга Лопато) [2015. Мультфильм] WEB-DLRip] [Tunes] BOSS 1.37 GB
Разная литература Виктор Страшнов, Ольга Страшнова | Строим современный загородный дом. Современные материалы (2015) [FB2] достали все 10 MB
Показать сообщения:    

Текущее время: Сегодня 12:33

Часовой пояс: GMT



Вы не можете начинать темы
Вы не можете отвечать на сообщения
Вы не можете редактировать свои сообщения
Вы не можете удалять свои сообщения
Вы не можете голосовать в опросах
Вы не можете прикреплять файлы к сообщениям
Вы не можете скачивать файлы