Ольга Романовская - Музыка (2014) [H.264/1080p] HDTVRip

 
Автор Сообщение

sergej644 ®

Пол:

Стаж: 4 года 11 месяцев

Сообщений: 6038

Откуда: Soviet Union



Награды: Нет

Торрент-статистика

Создавать темы 18-Окт-2014 18:38

[Цитировать]

-Ольга Романовская - Музыка (2014) [H.264/1080p] HDTVRip- Исполнитель: Ольга Романовская
Год выпуска: 2014
Жанр: Pop
Продолжительность: 00:03:52
Описание: Исполнительница поп-музыки Ольга Романовская представила новый клип на песню «Музыка». Это своего рода короткометражный фильм в жанре фэнтези. В клипе принимает участие большое количество актеров и танцоров. Все образы персонажей дополнены соответствующими костюмами, разработку которых Ольга Романовская взяла на себя. Это неудивительно, ведь певица выпускает собственную линию одежды. И хотя за певицей надолго закрепилось звание «экс-виагра», таланты ее не остались в тени. Будучи дизайнером собственной марки Romanovska, Ольга продолжила свою артистическую деятельность в качестве сольной исполнительницы.
Качество видео: HDTVRip
Видеокодек: MPEG-4 AVC/H.264
Битрейт видео: ~8074 Кбит/с
Размер кадра: 1920x1080 (16:9), 25,000 кадров/с
Аудиокодек: AAC, 2 ch, stereo
Битрейт аудио: 317 Кбит/с

MediaInfo:

Общее
Полное имя : Ольга Романовская - Музыка.mp4
Формат : MPEG-4
Профиль формата : Base Media / Version 2
Идентификатор кодека : mp42
Размер файла : 233 Мбайт
Продолжительность : 3 м. 52 с.
Режим общего битрейта : Переменный
Общий поток : 8395 Кбит/сек
Дата кодирования : UTC 2014-10-16 10:14:00
Дата пометки : UTC 2014-10-16 10:14:03
©TIM : 00:00:00:00
©TSC : 25
©TSZ : 1
Видео
Идентификатор : 1
Формат : AVC
Формат/Информация : Advanced Video Codec
Профиль формата : [url=mailto:Main@L4.2]Main@L4.2[/url]
Параметр CABAC формата : Да
Параметр ReFrames формата : 3 кадра
Идентификатор кодека : avc1
Идентификатор кодека/Информация : Advanced Video Coding
Продолжительность : 3 м. 52 с.
Вид битрейта : Переменный
Битрейт : 8074 Кбит/сек
Максимальный битрейт : 12,0 Мбит/сек
Ширина : 1920 пикселей
Высота : 1080 пикселей
Соотношение сторон : 16:9
Режим частоты кадров : Постоянный
Частота кадров : 25,000 кадров/сек
Стандарт вещания : PAL
Цветовое пространство : YUV
Субдискретизация насыщенности : 4:2:0
Битовая глубина : 8 бит
Тип развёртки : Прогрессивная
Бит/(Пиксели*Кадры) : 0.156
Размер потока : 224 Мбайт (96%)
Язык : English
Дата кодирования : UTC 2014-10-16 10:14:00
Дата пометки : UTC 2014-10-16 10:14:00
Аудио
Идентификатор : 2
Формат : AAC
Формат/Информация : Advanced Audio Codec
Профиль формата : LC
Идентификатор кодека : 40
Продолжительность : 3 м. 52 с.
Продолжительность оригинала : 3 м. 52 с.
Вид битрейта : Переменный
Битрейт : 317 Кбит/сек
Максимальный битрейт : 412 Кбит/сек
Каналы : 2 канала
Расположение каналов : Front: L R
Частота : 48,0 КГц
Метод сжатия : С потерями
Размер потока : 8,81 Мбайт (4%)
Размер потока оригинала : 8,81 Мбайт (4%)
Язык : English
Дата кодирования : UTC 2014-10-16 10:14:00
Дата пометки : UTC 2014-10-16 10:14:00
Скриншоты:
[Профиль] [ЛС]

Создавать темы 13-Авг-2015 12:07 (спустя 9 месяцев 25 дней)

Топик был перенесен из форума Видеоклипы в форум Наши клипы
sergej644
 
Кто просматривает тему:

Форум Тема Автор Размер
Pop (Поп) Ольга Горбачёва - Благо дарю - 2015, MP3, 320 kbps достали все 147 MB
Rock (Рок) Ольга Кормухина - Соль - 2016, MP3, 320 kbps достали все 92 MB
Фильмы (HD Rips | 720p, 1080p) 45 секунд (Владимир Басов мл., Ольга Басова) [2013, Россия, драма, мелодрама, HDTVRip 720p] TorrentFilm 2.91 GB
Фильмы (HD Rips | 720p, 1080p) 45 секунд (Владимир Басов мл., Ольга Басова) [2013, Россия, мелодрама, HDTV 1080i] TorrentFilm 6.31 GB
Фильмы (DVD 5/9) Бабы рязанские (Ольга Преображенская, Иван Правов) [1927, СССР, социальная драма, DVD5 (Custom)] [Немое кино] интертитры Fr Sub Rus TorrentFilm 3.31 GB
Фильмы 2006-2008 года Бобро поржаловать! / Bienvenue chez les Ch\'tis (Дэни Бун / Dany Boon) [2008, Франция, Комедия, BDRip] Dub (Вольга) + DVO TorrentFilm 2.18 GB
Отечественные мультфильмы Богатырша (Ольга Лопато) [2015. Мультфильм] WEB-DLRip] [Tunes] BOSS 1.37 GB
Разная литература Виктор Страшнов, Ольга Страшнова | Строим современный загородный дом. Современные материалы (2015) [FB2] достали все 10 MB
Показать сообщения:    

Текущее время: Сегодня 22:11

Часовой пояс: GMT



Вы не можете начинать темы
Вы не можете отвечать на сообщения
Вы не можете редактировать свои сообщения
Вы не можете удалять свои сообщения
Вы не можете голосовать в опросах
Вы не можете прикреплять файлы к сообщениям
Вы не можете скачивать файлы