Олли: Веселый грузовичок / Olly The Little White Van [s01] (2011) WEB-DL 1080p от -merci- | D

 
Автор Сообщение

достали все ®

Пол:

Стаж: 1 год 8 месяцев

Сообщений: 6559



Награды: 12 (Подробнее)

Mega Releaser 1 (Количество: 1) Top Releaser 2 (Количество: 1) Mega Releaser 2 (Количество: 1)
Торрент-статистика

Создавать темы 29-Мар-2016 11:38

[Цитировать]

Информация о фильме
Название: Олли: Веселый грузовичок
Оригинальное название: Olly The Little White Van
Год выхода: 2011
Страна: Великобритания, CGI animated T.V, CITV
Жанр: Мультсериал, семейный, детский, приключения
Продолжительность: 65 x ~ 00:05:08
Перевод: Профессиональный дублированный
Режиссер: Дэйв Гарбет
О фильме:
Этот сериал для маленьких зрителей повествует о жизни грузовой машинки Олли. Он очень маленький и по характеру, и по поведению очень похож на ребёнка. Всё ему необходимо знать, что происходит вокруг. Он задаёт тысячу вопросов и попадает в различные ситуации из-за своей любознательности. Но это только подстёгивает его интерес. Все вокруг очень интересно, но сложные ситуации возникают на каждом шагу...

Содержание

01. Кафе у дороги
02. Школа вождения
03. Любимое мороженое
04. Рок-н-ролл
05. Большая уборка
06. Звезда собачьего шоу!
07. Наблюдение за птицами
08. Ралли
09. Стать котом
10. Темный переулок
11. Торжественное открытие
12. Поймай меня, если сможешь
13. Зоопарк на холме
14. Гигантский скачок для грузовечества
15. Спасение Руби
16. Олли шофер
17. Танцы на льду
18. Турбо Берти
19. Не о чем беспокоиться
20. Веселая мойка
21. Мюзикл Айвен и Марио
22. Кубок Бамптона
23. Снова в школу
24. Радио-гастроли
25. Цветочная ярмарка
26. Художники
27. В поисках сокровищ
28. Современный трактор
29. Сумасшедший гольф
30. Олли - пожарный
31. Олли - волшебник
32. Высокие обороты
33. Проснись и танцуй!
34. Сенсация в Бамптоне
35. Олли - кинозвезда
36. Держи вора!
37. Олли - детектив
38. Олли - вонючка
39. Сервис и суп
40. Стирка-Мэн и чудо на колесах!
41. Посылка с сюрпризом
42. Икота
43. Олли и Рождество
44. Олли - изобретатель
45. Обращаться осторожно!
46. День города
47. Новые очки Берти
48. День святого Валентина
49. Еда на колесах
50. Экзамен по вождению
51. Олли в зоопарке
52. Автодром
53. Новый имидж Сьюзи
54. Альпинисты на небоскребе
55. Бамптонские автобусы
56. Тайна бамптонского привидения
57. Утиная история
58. Прослушивание
59. Отдых для Олли
60. История с поездом
61. Счастливый билет
62. Новая работа
63. Новый мост
64. Олли - моряк!
65. День рождения Базы
-Доп. информация:
Семпл-Файл
Формат: MKV
Качество: WEB-DL 1080p
Видео: MPEG-4 AVC, [email protected]/* */, 1920x1080 (16:9), ~ 4 899 Kbps, 25.000 fps
Звук: 48.0 KHz, AC3 2.0, 192 Kbps
Субтитры: нет

MI

54. Альпинисты на небоскребе. WEB-DL.1080p.-merci-.mkv
Format : Matroska
Format version : Version 2
File size : 190 MiB
Duration : 5mn 7s
Overall bit rate : 5 195 Kbps
Movie name : Олли - Весёлый (белый) грузовичок / - merci -
Encoded date : UTC 2015-07-07 01:22:17
Writing application : mkvmerge v5.8.0 ('No Sleep / Pillow') built on Sep 2 2012 15:37:04
Writing library : libebml v1.2.3 + libmatroska v1.3.0
Video
ID : 1
Format : AVC
Format/Info : Advanced Video Codec
Format profile : High@L4
Format settings, CABAC : Yes
Format settings, ReFrames : 2 frames
Codec ID : V_MPEG4/ISO/AVC
Duration : 5mn 7s
Bit rate : 4 899 Kbps
Width : 1 920 pixels
Height : 1 080 pixels
Display aspect ratio : 16:9
Frame rate mode : Constant
Frame rate : 25.000 fps
Color space : YUV
Chroma subsampling : 4:2:0
Bit depth : 8 bits
Scan type : Progressive
Bits/(Pixel*Frame) : 0.095
Stream size : 180 MiB (94%)
Title : 54. Альпинисты на небоскребе. WEB-DL.1080p.x264.-merci-
Language : English
Default : Yes
Forced : No
Color range : Limited
Color primaries : BT.709
Transfer characteristics : BT.709
Matrix coefficients : BT.709
Audio
ID : 2
Format : AC-3
Format/Info : Audio Coding 3
Mode extension : CM (complete main)
Format settings, Endianness : Big
Codec ID : A_AC3
Duration : 5mn 7s
Bit rate mode : Constant
Bit rate : 192 Kbps
Channel(s) : 2 channels
Channel positions : Front: L R
Sampling rate : 48.0 KHz
Frame rate : 31.250 fps (1536 spf)
Compression mode : Lossy
Stream size : 7.04 MiB (4%)
Title : Dub
Language : Russian
Default : Yes
Forced : No

Скриншоты

Релиз от: -merci-
[Профиль] [ЛС]
Показать сообщения:    

Текущее время: Сегодня 06:04

Часовой пояс: GMT



Вы не можете начинать темы
Вы не можете отвечать на сообщения
Вы не можете редактировать свои сообщения
Вы не можете удалять свои сообщения
Вы не можете голосовать в опросах
Вы не можете прикреплять файлы к сообщениям
Вы не можете скачивать файлы