Олимпиада-80 (выпуск 22-24) (Олег Чуркин, Владимир Самсонов) [1981, рисованный, TVRip]

 
Автор Сообщение

TorrentFilm ®

Пол:

Стаж: 1 год 11 месяцев

Сообщений: 7741



Награды: Нет

Торрент-статистика

Создавать темы 04-Дек-2014 09:45

[Цитировать]

Олимпиада-80 (выпуск 22-24)
Страна: СССР
Жанр: рисованный
Продолжительность: 00:01:34
Год выпуска: 1981
Перевод: Не требуется
Русские субтитры: нет
Режиссёр: Олег Чуркин, Владимир Самсонов
Описание: Сборник микрофильмов, созданных лучшими режиссерами СССР, приуроченный к олимпийским играм в Москве 1980г. Каждый мультфильм в комической форме обыгрывает олимпийский вид спорта персонажами Фомой и Еремой.
Список серий:
22 Прыжки с трамплина - 00:01:34
23 Современное пятиборье - 00:02:19
24 Тяжёлая атлетика - 00:01:18
Семпл: https://yadi.sk/d/igstjDdRTHmzb
Качество: TVRip
Формат: AVI
Видео: XviD, 704х528, 4:3, 25.000 fps, 2 017 Kbps
Аудио: MP3, 48.0 KHz, 2 channels, 192 Kbps
Субтитры: отсутствуют

Подробные технические данные Выпуск 22

GeneralComplete name : C:\Users\Саша\Downloads\80.pryzhki.s.tramplina.aviFormat : AVIFormat/Info : Audio Video InterleaveFile size : 25.0 MiBDuration : 1mn 34sOverall bit rate : 2 219 KbpsWriting application : VirtualDubMod 1.5.10.3 | www.virtualdub-fr.org || (build 2550/release)Writing library : VirtualDubMod build 2550/release
VideoID : 0Format : MPEG-4 VisualFormat profile : Advanced Simple@L5Format settings, BVOP : YesFormat settings, QPel : NoFormat settings, GMC : No warppointsFormat settings, Matrix : CustomCodec ID : XVIDCodec ID/Hint : XviDDuration : 1mn 34sBit rate : 2 017 KbpsWidth : 704 pixelsHeight : 528 pixelsDisplay aspect ratio : 4:3Frame rate : 25.000 fpsResolution : 8 bitsColorimetry : 4:2:0Scan type : ProgressiveBits/(Pixel*Frame) : 0.217Stream size : 22.7 MiB (91%)Writing library : XviD 64
AudioID : 1Format : MPEG AudioFormat version : Version 1Format profile : Layer 3Codec ID : 55Codec ID/Hint : MP3Duration : 1mn 34sBit rate mode : ConstantBit rate : 192 KbpsChannel(s) : 2 channelsSampling rate : 48.0 KHzStream size : 2.16 MiB (9%)Alignment : Aligned on interleavesInterleave, duration : 40 ms (1.01 video frame)Interleave, preload duration : 504 msWriting library : LAME3.99.k_ьЊм¬V`ў

Подробные технические данные Выпуск 23

GeneralComplete name : C:\Users\Саша\Downloads\Видео\Olimpiada80\80.sovremennoe.pjatibore.aviFormat : AVIFormat/Info : Audio Video InterleaveFile size : 34.7 MiBDuration : 2mn 19sOverall bit rate : 2 081 KbpsWriting application : VirtualDubMod 1.5.10.3 | www.virtualdub-fr.org || (build 2550/release)Writing library : VirtualDubMod build 2550/release
VideoID : 0Format : MPEG-4 VisualFormat profile : Advanced Simple@L5Format settings, BVOP : YesFormat settings, QPel : NoFormat settings, GMC : No warppointsFormat settings, Matrix : Default (H.263)Codec ID : XVIDCodec ID/Hint : XviDDuration : 2mn 19sBit rate : 1 943 KbpsWidth : 720 pixelsHeight : 544 pixelsDisplay aspect ratio : 4:3Frame rate : 25.000 fpsResolution : 8 bitsColorimetry : 4:2:0Scan type : ProgressiveBits/(Pixel*Frame) : 0.198Stream size : 32.4 MiB (93%)Writing library : XviD 73
AudioID : 1Format : MPEG AudioFormat version : Version 1Format profile : Layer 3Codec ID : 55Codec ID/Hint : MP3Duration : 2mn 19sBit rate mode : ConstantBit rate : 128 KbpsChannel(s) : 2 channelsSampling rate : 48.0 KHzStream size : 2.13 MiB (6%)Alignment : Aligned on interleavesInterleave, duration : 40 ms (1.00 video frame)Interleave, preload duration : 504 msWriting library : LAME3.99rEncoding settings : -m s -V 4 -q 2 -lowpass 17 -b 128

Подробные технические данные Выпуск 24

GeneralComplete name : C:\Users\Саша\Downloads\Видео\Olimpiada80\80.tjazhelaja.atletika.aviFormat : AVIFormat/Info : Audio Video InterleaveFile size : 19.2 MiBDuration : 1mn 18sOverall bit rate : 2 047 KbpsWriting application : VirtualDubMod 1.5.10.3 | www.virtualdub-fr.org || (build 2550/release)Writing library : VirtualDubMod build 2550/release
VideoID : 0Format : MPEG-4 VisualFormat profile : Advanced Simple@L5Format settings, BVOP : YesFormat settings, QPel : NoFormat settings, GMC : No warppointsFormat settings, Matrix : Default (H.263)Codec ID : XVIDCodec ID/Hint : XviDDuration : 1mn 18sBit rate : 1 909 KbpsWidth : 720 pixelsHeight : 544 pixelsDisplay aspect ratio : 4:3Frame rate : 25.000 fpsResolution : 8 bitsColorimetry : 4:2:0Scan type : ProgressiveBits/(Pixel*Frame) : 0.195Stream size : 17.9 MiB (93%)Writing library : XviD 73
AudioID : 1Format : MPEG AudioFormat version : Version 1Format profile : Layer 3Codec ID : 55Codec ID/Hint : MP3Duration : 1mn 18sBit rate mode : ConstantBit rate : 128 KbpsChannel(s) : 2 channelsSampling rate : 48.0 KHzStream size : 1.20 MiB (6%)Alignment : Aligned on interleavesInterleave, duration : 40 ms (1.01 video frame)Interleave, preload duration : 504 msWriting library : LAME3.99rEncoding settings : -m s -V 4 -q 2 -lowpass 17 -b 128

Скриншоты



[Профиль] [ЛС]
Кто просматривает тему:

Форум Тема Автор Размер
Nat Geo Wild Nat Geo Wild: Национальные парки Америки. Олимпик / America's National Parks. Olympic [сезон 1 серия 1] (Florian Graner) [2015 г., Документальный, природа, флора, фауна, HDTVRip 720p] skorpionN 1.54 GB
XXXI Летние Олимпийские игры. Рио-де-Жанейро 2016 (Бразилия) XXXI Летние Олимпийские игры в Рио. Бокс. Мужчины.[52, 64, Свыше 91 кг] Женщины [75, 60 кг] (2016) SATRip достали все 2.09 GB
XXXI Летние Олимпийские игры. Рио-де-Жанейро 2016 (Бразилия) XXXI Летние Олимпийские Игры. Баскетбол. Мужчины. Полуфинал. Австралия - Сербия [Матч Игра] [19.08] (2016) HDTV 1080i BOSS 8 GB
XXXI Летние Олимпийские игры. Рио-де-Жанейро 2016 (Бразилия) XXXI Летние Олимпийские Игры. Баскетбол. Мужчины. Полуфинал. Испания - США [Матч Игра] [19.08] (2016) HDTV 1080i BOSS 7.05 GB
XXXI Летние Олимпийские игры. Рио-де-Жанейро 2016 (Бразилия) XXXI Летние Олимпийские Игры. Бразилия. Волейбол. Женщины. Группа А. 2-й тур. Россия - Корея [Матч Игра HD](2016) HDTV 1080i от GeneralFilm Russian Mafia 7.47 GB
XXXI Летние Олимпийские игры. Рио-де-Жанейро 2016 (Бразилия) XXXI Летние Олимпийские Игры. Бразилия. Волейбол. Женщины. Группа А. 5-й тур. Россия - Бразилия [Матч Игра HD](2016) HDTV 1080i BOSS 6.4 GB
XXXI Летние Олимпийские игры. Рио-де-Жанейро 2016 (Бразилия) XXXI Летние Олимпийские Игры. Волейбол. Женщины. Матч за 3 место. Голландия - США [Матч Игра HD] (2016) HDTV 1080i от GeneralFilm BOSS 6.34 GB
XXXI Летние Олимпийские игры. Рио-де-Жанейро 2016 (Бразилия) XXXI Летние Олимпийские Игры. Волейбол. Женщины. Финал. Китай - Сербия [Матч Игра HD] (2016) HDTV 1080i от GeneralFilm BOSS 6.27 GB
Показать сообщения:    

Текущее время: Сегодня 04:58

Часовой пояс: GMT



Вы не можете начинать темы
Вы не можете отвечать на сообщения
Вы не можете редактировать свои сообщения
Вы не можете удалять свои сообщения
Вы не можете голосовать в опросах
Вы не можете прикреплять файлы к сообщениям
Вы не можете скачивать файлы