Олимпиада 80. Больше, чем спорт. (Дарья Рыжкова) [2015, Документальный, HDTV 1080i]

 
Автор Сообщение

TorrentFilm ®

Пол:

Стаж: 2 года

Сообщений: 7741



Награды: Нет

Торрент-статистика

Создавать темы 27-Июл-2015 00:08

[Цитировать]

Олимпиада 80. Больше, чем спорт.
Год выпуска: 2015
Страна: Россия
Студия: Первый Канал HD | ООО "Медиа Конструктор"
Жанр: Документальный
Продолжительность: 00:51:43
Перевод: Не требуется
Русские субтитры: нет
Режиссер: Дарья Рыжкова
Описание: 35 лет назад в Москве открылись XXII Летние Олимпийские Игры, изменившие не только судьбу столицы, но и жизнь всех граждан Советского Союза. Олимпиада-80 – самый красочный и долгожданный праздник того времени!
16 тысяч спортсменов из 80-ти стран, 6 тысяч иностранных журналистов, 70 000 сотрудников спецслужб со всего Советского Союза.
5 миллионов зрителей! 36 мировых рекордов! 195 советских медалей в общем зачете!
Трудно представить, что Олимпиада в Москве могла не состояться. В фильме будут рассказаны неизвестные подробности проведения игр. Оказывается, лично Брежнев до последнего сомневался в нужности проведения игр. Причина – бойкот Олимпиады ведущими западными странами, среди которых были США и ФРГ.

Читать далее

Тем не менее, в Москве развернулось грандиозное строительство. Был возведен самый большой в Европе закрытый стадион - Олимпийский, реконструированы Лужники, построены стадион Дружба, велотрек в Крылатском, долгое время остававшийся лучшим в мире. Столица обзавелась новыми гостиницами - Измайлово и Космос,- всего в городе появилось 78 новых сооружений.
В фильме создатели Олимпиады – строители, волонтеры, специалисты, обеспечивавшие трансляцию игр – расскажут о том, как Москва становилась мировой спортивной столицей.
Уникальные современные съемки олимпийских объектов в Москве с воздуха соединятся с кадрами хроники 80-х. Это поможет зрителю почувствовать ту особенную атмосферу олимпийского лета в Москве.
Ветераны КГБ расскажут, как обеспечивалась безопасность на первых Олимпийских играх в социалистической стране. Спортсмены жили в изобилии, но за колючей проволокой и под строгим надзором КГБ. Олимпийские чемпионы, мировые рекордсмены расскажут о повседневной олимпийской жизни в Москве – об отдыхе после соревнованиями, о продуктах, которые наводнили прилавки, о знакомствах с иностранцами.
Фильм впервые раскроет все тайны Летних олимпийских игр. Герои фильма расскажут о закулисной борьбе, развернувшейся вокруг места проведения Игр, о том, какой ценой нам удалось отстоять честь нашей страны, о тяжелой борьбе за рекорды, грандиозных церемониях Открытия и Закрытия Олимпиады-80 и об интригах, о которых зритель не подозревал.
Вы увидите главное спортивное событие 80-го года глазами героев фильма – политиков, звезд, спортсменов, строителей и волонтеров, сотрудников КГБ и Членов Олимпийского Комитета.
Ссылка на другие альтернативные раздачи
Сэмпл: http://sendfile.su/1140512
Тип релиза: HDTV 1080i
Контейнер: TS
Видео: AVC/H.264, PAL, 1920x1080, 16:9, 7265 Кбит/сек, 25 fps
Аудио: русский, MP-2, 2 ch, 48,0 КГц, 224 Кбит/сек

MediaInfo

ОбщееИдентификатор : 1 (0x1)Полное имя : D:\Олимпиада 80. Больше, чем спорт.(HDTV 1080i).tsФормат : MPEG-TSРазмер файла : 2,85 ГбайтПродолжительность : 51 м.Режим общего битрейта : ПеременныйОбщий поток : 7880 Кбит/секМаксимальный общий битрейт : 35,5 Мбит/сек
ВидеоИдентификатор : 4113 (0x1011)Идентификатор меню : 1 (0x1)Формат : AVCФормат/Информация : Advanced Video CodecПрофиль формата : High@L4Параметр CABAC формата : ДаПараметр ReFrames формата : 3 кадраИдентификатор кодека : 27Продолжительность : 51 м.Вид битрейта : ПеременныйБитрейт : 7265 Кбит/секМаксимальный битрейт : 40,0 Мбит/секШирина : 1920 пикселейВысота : 1080 пикселейСоотношение сторон : 16:9Частота кадров : 25,000 кадров/секСтандарт вещания : PALЦветовое пространство : YUVСубдискретизация насыщенности : 4:2:0Битовая глубина : 8 битТип развёртки : ЧересстрочнаяПорядок развёртки : Верхнее поле первоеБит/(Пиксели*Кадры) : 0.140Размер потока : 2,62 Гбайт (92%)Цветовой диапазон : LimitedОсновные цвета : BT.709Характеристики трансфера : BT.709Коэффициенты матрицы : BT.709
АудиоИдентификатор : 4352 (0x1100)Идентификатор меню : 1 (0x1)Формат : MPEG AudioВерсия формата : Version 1Профиль формата : Layer 2Идентификатор кодека : 4Продолжительность : 51 м.Вид битрейта : ПостоянныйБитрейт : 224 Кбит/секКаналы : 2 каналаЧастота : 48,0 КГцМетод сжатия : С потерямиЗадержка видео : 232 мс.Размер потока : 82,8 Мбайт (3%)

Скриншоты

[Профиль] [ЛС]
Кто просматривает тему:

Форум Тема Автор Размер
Nat Geo Wild Nat Geo Wild: Национальные парки Америки. Олимпик / America's National Parks. Olympic [сезон 1 серия 1] (Florian Graner) [2015 г., Документальный, природа, флора, фауна, HDTVRip 720p] skorpionN 1.54 GB
XXXI Летние Олимпийские игры. Рио-де-Жанейро 2016 (Бразилия) XXXI Летние Олимпийские игры в Рио. Бокс. Мужчины.[52, 64, Свыше 91 кг] Женщины [75, 60 кг] (2016) SATRip достали все 2.09 GB
XXXI Летние Олимпийские игры. Рио-де-Жанейро 2016 (Бразилия) XXXI Летние Олимпийские Игры. Баскетбол. Мужчины. Полуфинал. Австралия - Сербия [Матч Игра] [19.08] (2016) HDTV 1080i BOSS 8 GB
XXXI Летние Олимпийские игры. Рио-де-Жанейро 2016 (Бразилия) XXXI Летние Олимпийские Игры. Баскетбол. Мужчины. Полуфинал. Испания - США [Матч Игра] [19.08] (2016) HDTV 1080i BOSS 7.05 GB
XXXI Летние Олимпийские игры. Рио-де-Жанейро 2016 (Бразилия) XXXI Летние Олимпийские Игры. Бразилия. Волейбол. Женщины. Группа А. 2-й тур. Россия - Корея [Матч Игра HD](2016) HDTV 1080i от GeneralFilm Russian Mafia 7.47 GB
XXXI Летние Олимпийские игры. Рио-де-Жанейро 2016 (Бразилия) XXXI Летние Олимпийские Игры. Бразилия. Волейбол. Женщины. Группа А. 5-й тур. Россия - Бразилия [Матч Игра HD](2016) HDTV 1080i BOSS 6.4 GB
XXXI Летние Олимпийские игры. Рио-де-Жанейро 2016 (Бразилия) XXXI Летние Олимпийские Игры. Волейбол. Женщины. Матч за 3 место. Голландия - США [Матч Игра HD] (2016) HDTV 1080i от GeneralFilm BOSS 6.34 GB
XXXI Летние Олимпийские игры. Рио-де-Жанейро 2016 (Бразилия) XXXI Летние Олимпийские Игры. Волейбол. Женщины. Финал. Китай - Сербия [Матч Игра HD] (2016) HDTV 1080i от GeneralFilm BOSS 6.27 GB
Показать сообщения:    

Текущее время: Сегодня 22:32

Часовой пояс: GMT



Вы не можете начинать темы
Вы не можете отвечать на сообщения
Вы не можете редактировать свои сообщения
Вы не можете удалять свои сообщения
Вы не можете голосовать в опросах
Вы не можете прикреплять файлы к сообщениям
Вы не можете скачивать файлы