Оливер Твист / Oliver Twist (2005) BDRip 1080p

 
Автор Сообщение

Белочка ®

Пол:

Стаж: 5 лет 8 месяцев

Сообщений: 2081



Награды: 1 (Подробнее)

Girls (Количество: 1)
Торрент-статистика

Создавать темы 17-Ноя-2014 09:42

[Цитировать]

Оливер Твист / Oliver Twist (2005) BDRip 1080p
Информация о фильме
Название: Оливер Твист
Оригинальное название: Oliver Twist
Год выхода: 2005
Жанр: драма, семейный, приключения
Режиссер: Роман Полански
В ролях: Барни Кларк, Бен Кингсли, Джэми Формен, Лиэнн Роу, Марк Стронг, Гарри Иден, Эдвард Хардуик, Иэн МакНис, Джереми Свифт, Фрэнсис Кука
Описание: 19-й век. Мальчик по имени Оливер Твист, брошенный родителями, оказывается на улицах Лондона. Здесь он знакомится с вором по имени Фэджин, который приглашает Оливера в свою команду. Некоторое время спустя Оливер, начинающий вор, попадается на горячем. Однако, поймавший его мистер Браунлоу вместо того, чтобы наказать маленького мерзавца, решает его воспитать…

Страна: Франция, Великобритания, Италия, Чехия
Студия: ETIC Film
Время: 02:09:59
Перевод: Профессиональный (дублированный)
Файл
Кодек: x264
Качество: BDRip 1080p
Видео: 1920x814, 23.976 fps, 10080 kbps
Аудио #1: DTS, 6 ch, 755 kbps | Русский (Mosfilm)
Аудио #2: DTS, 6 ch, 1510 kbps | Английский
Субтитры: Русские, Английские
Семпл: скачать
Скриншоты

MI

Общее
Уникальный идентификатор : 224605883246483441771796285542674343697 (0xA8F985060337FD55913764E385AE2711)
Имя : Oliver.Twist.2005.BDRip.1080p.mkv
Формат : Matroska
Версия формата : Version 2
Размер файла : 11,2 Гбайт
Продолжительность : 2 ч. 9 м.
Общий поток : 12,3 Мбит/сек
Название фильма : Оливер Твист / Oliver Twist (2005) BDRip 1080p
Дата кодирования : UTC 2012-04-06 19:23:52
Программа кодирования : mkvmerge v5.2.0 ('I can't explain') built on Dec 18 2011 18:12:03
Библиотека кодирования : libebml v1.2.3 + libmatroska v1.3.0
Видео
Идентификатор : 1
Формат : AVC
Формат/Информация : Advanced Video Codec
Профиль формата : High@L4.1
Параметр CABAC формата : Да
Параметр ReFrames формата : 5 кадров
Режим смешивания : Header stripping
Идентификатор кодека : V_MPEG4/ISO/AVC
Продолжительность : 2 ч. 9 м.
Битрейт : 10,1 Мбит/сек
Ширина : 1920 пикселей
Высота : 814 пикселей
Соотношение сторон : 2,35:1
Частота кадров : 23,976 кадра/сек
Цветовое пространство : YUV
Субдискретизация насыщенности : 4:2:0
Битовая глубина : 8 бит
Тип развёртки : Прогрессивная
Бит/(Пиксели*Кадры) : 0.269
Размер потока : 8,93 Гбайт (80%)
Библиотека кодирования : x264 core 102 r1666 d058f37
Настройки программы : cabac=1 / ref=5 / deblock=1:-3:-3 / analyse=0x3:0x113 / me=umh / subme=9 / psy=1 / psy_rd=1.10:0.15 / mixed_ref=1 / me_range=32 / chroma_me=1 / trellis=2 / 8x8dct=1 / cqm=2 / deadzone=21,11 / fast_pskip=0 / chroma_qp_offset=-2 / threads=12 / sliced_threads=0 / nr=0 / decimate=1 / interlaced=0 / constrained_intra=0 / bframes=5 / b_pyramid=2 / b_adapt=2 / b_bias=0 / direct=3 / weightb=1 / open_gop=0 / weightp=2 / keyint=250 / keyint_min=25 / scenecut=40 / intra_refresh=0 / rc_lookahead=50 / rc=2pass / mbtree=1 / bitrate=10080 / ratetol=2.0 / qcomp=0.70 / qpmin=10 / qpmax=51 / qpstep=4 / cplxblur=20.0 / qblur=0.5 / vbv_maxrate=50000 / vbv_bufsize=50000 / ip_ratio=1.40 / aq=1:0.90 / nal_hrd=none
Язык : English
Аудио #1
Идентификатор : 2
Формат : DTS
Формат/Информация : Digital Theater Systems
Режим смешивания : Header stripping
Идентификатор кодека : A_DTS
Продолжительность : 2 ч. 9 м.
Вид битрейта : Постоянный
Битрейт : 755 Кбит/сек
Каналы : 6 каналов
Расположение каналов : Front: L C R, Side: L R, LFE
Частота : 48,0 КГц
Битовая глубина : 24 бит
Метод сжатия : С потерями
Размер потока : 702 Мбайт (6%)
Заголовок : DUB (Mosfilm)
Язык : Russian
Аудио #2
Идентификатор : 3
Формат : DTS
Формат/Информация : Digital Theater Systems
Режим смешивания : Header stripping
Идентификатор кодека : A_DTS
Продолжительность : 2 ч. 9 м.
Вид битрейта : Постоянный
Битрейт : 1510 Кбит/сек
Каналы : 6 каналов
Расположение каналов : Front: L C R, Side: L R, LFE
Частота : 48,0 КГц
Битовая глубина : 24 бит
Метод сжатия : С потерями
Размер потока : 1,37 Гбайт (12%)
Заголовок : DTS-HD MA CORE 1536K
Язык : English
Текст #1
Идентификатор : 4
Формат : UTF-8
Идентификатор кодека : S_TEXT/UTF8
Идентификатор кодека/Информация : UTF-8 Plain Text
Язык : Russian
Текст #2
Идентификатор : 5
Формат : UTF-8
Идентификатор кодека : S_TEXT/UTF8
Идентификатор кодека/Информация : UTF-8 Plain Text
Язык : English

Интересные факты

Идея создания новой версии «Оливера Твиста» была подсказана женой режиссёра Романа Полански Эммануэль Синье, когда он находился в поисках подходящего сюжета, который мог бы заинтересовать их детей.
Изначально роль мистера Браунлоу была предназначена Фрэнку Финлэю, который впоследствии выбыл из проекта и вместо него был приглашён Эдвард Хардвик.
Дети режиссёра Романа Полански получили небольшие роли в картине. Морган Полански играет дочь фермера, к которому Оливер на пути в Лондон заходит попросить немного еды, а Элвис Полански мальчика, играющего с обручем на улицах Лондона.
Съёмочная площадка была столь велика, что режиссёр Роман Полански использовал моторный скутер, чтобы перемещаться по ней.
Чтобы молодые актеры, играющие мальчиков из банды Фэджина, лучше вошли в образ, Бен Кингсли сохранял черты своего персонажа (сутулую походку и манеру говорить) и за пределами съёмочной площадки.
Многие декорации были воссозданы на основе работ знаменитого художника-иллюстратора 19 века Густава Дорэ, который, однако, не иллюстрировал ни один из романов Чарльза Диккенса.
Сыгравший роль Оливера Твиста Барни Кларк на всём протяжении съёмочного процесса вёл дневник, в котором рассказывал о своих впечатлениях от участия в проекте.
[Профиль] [ЛС]
Показать сообщения:    

Текущее время: Сегодня 22:46

Часовой пояс: GMT



Вы не можете начинать темы
Вы не можете отвечать на сообщения
Вы не можете редактировать свои сообщения
Вы не можете удалять свои сообщения
Вы не можете голосовать в опросах
Вы не можете прикреплять файлы к сообщениям
Вы не можете скачивать файлы