Олег Табаков. "Смотрю на Мир Влюбленными Глазами" (2015) HDTVRip 720p

 
Автор Сообщение

sergej644 ®

Пол:

Стаж: 4 года 11 месяцев

Сообщений: 6040

Откуда: Soviet Union



Награды: Нет

Торрент-статистика

Создавать темы 15-Авг-2015 17:07

[Цитировать]

Олег Табаков. "Смотрю на Мир Влюбленными Глазами"- Год выпуска: 2015
Страна: Россия
Студия: Первый Канал HD | Телекомпания "Останкино"
Жанр: Документальный
Продолжительность: 0:49:57
Продюсеры: Сергей Медведев, Олег Вольнов, Алексей Пиманов
Автор и режиссер: Анна Гуляева-Описание: 17 августа 2015 года Олегу Табакову исполняется 80 лет. Ночной театр. Сцена. Этот разговор с Маэстро стал настоящей исповедью! Никогда Олег Павлович не был так откровенен. В подтверждение этих слов – короткая история из нашего фильма. Табаков признался, что сегодня он мечтает о …собаке. Так вышло, что всех его собак (которых было у него немало), пока он был на гастролях или в съемочных экспедициях, отдавали другим хозяевам...-Автор рипа: lrn
Автор записи: Taz
Сэмпл: sendfile-Тип релиза: HDTVRip 720p
Контейнер: MKV
Видео: 1280x720 (16:9), 25,000 fps, H264, ~4000 kbps avg, ~0.174 bit/pixel
Аудио: 48 kHz, AC3 Dolby Digital, 2/0 (L,R) ch, ~192.00 kbps avg-

MediaInfo

General
Unique ID : 184048370515944349367263568500368377313 (0x8A766D42B6ED71F09F611D2DF6EC85E1)
Complete name : E:uTorrent.TempTempOleg.Tabakov.Smotryu.Na.Mir.Vlyublennymi.Glazami.2015.HDTV.720p.x264-lrn.mkv
Format : Matroska
Format version : Version 4 / Version 2
File size : 1.46 GiB
Duration : 49mn 57s
Overall bit rate : 4 194 Kbps
Movie name : Oleg.Tabakov.Smotryu.Na.Mir.Vlyublennymi.Glazami.2015.HDTV.720p.x264-lrn
Encoded date : UTC 2010-02-22 21:41:31
Writing application : mkvmerge v5.9.0 ('On The Loose') built on Dec 9 2012 15:37:01
Writing library : libebml v1.3.0 + libmatroska v1.4.0
DURATION : 00:49:57.280000000
NUMBER_OF_FRAMES : 74932
NUMBER_OF_BYTES : 1498577686
_STATISTICS_WRITING_APP : mkvmerge v7.7.0 ('Six Voices') 32bit built on Feb 28 2015 23:23:00
_STATISTICS_WRITING_DATE_UT : 2015-08-15 13:19:00
_STATISTICS_TAGS : BPS DURATION NUMBER_OF_FRAMES NUMBER_OF_BYTES
Video
ID : 1
Format : AVC
Format/Info : Advanced Video Codec
Format profile : High@L4.1
Format settings, CABAC : Yes
Format settings, ReFrames : 8 frames
Codec ID : V_MPEG4/ISO/AVC
Duration : 49mn 57s
Bit rate : 4 000 Kbps
Width : 1 280 pixels
Height : 720 pixels
Display aspect ratio : 16:9
Frame rate mode : Constant
Frame rate : 25.000 fps
Color space : YUV
Chroma subsampling : 4:2:0
Bit depth : 8 bits
Scan type : Progressive
Bits/(Pixel*Frame) : 0.174
Stream size : 1.37 GiB (93%)
Writing library : x264 core 146 r2538 121396c
Encoding settings : cabac=1 / ref=8 / deblock=1:-3:-3 / analyse=0x3:0x133 / me=umh / subme=9 / psy=1 / psy_rd=1.00:0.00 / mixed_ref=1 / me_range=32 / chroma_me=1 / trellis=2 / 8x8dct=1 / cqm=0 / deadzone=21,11 / fast_pskip=1 / chroma_qp_offset=-2 / threads=12 / lookahead_threads=2 / sliced_threads=0 / nr=0 / decimate=1 / interlaced=0 / bluray_compat=0 / constrained_intra=0 / bframes=8 / b_pyramid=2 / b_adapt=2 / b_bias=0 / direct=3 / weightb=1 / open_gop=0 / weightp=2 / keyint=250 / keyint_min=25 / scenecut=40 / intra_refresh=0 / rc_lookahead=50 / rc=2pass / mbtree=1 / bitrate=4000 / ratetol=1.0 / qcomp=0.60 / qpmin=0 / qpmax=69 / qpstep=4 / cplxblur=20.0 / qblur=0.5 / vbv_maxrate=62500 / vbv_bufsize=78125 / nal_hrd=none / filler=0 / ip_ratio=1.40 / aq=1:1.00
Default : Yes
Forced : No
Audio
ID : 2
Format : AC-3
Format/Info : Audio Coding 3
Mode extension : CM (complete main)
Format settings, Endianness : Big
Codec ID : A_AC3
Duration : 49mn 57s
Bit rate mode : Constant
Bit rate : 192 Kbps
Channel(s) : 2 channels
Channel positions : Front: L R
Sampling rate : 48.0 KHz
Compression mode : Lossy
Stream size : 68.6 MiB (5%)
Language : Russian
Default : Yes
Forced : No

x264 log

raw [info]: 1280x720p 1:1 @ 25/1 fps (cfr)
x264 [info]: using SAR=1/1
x264 [info]: using cpu capabilities: MMX2 SSE2Fast SSSE3 SSE4.2 AVX
x264 [info]: profile High, level 4.1
x264 [info]: frame I:461 Avg QP:14.31 size:108210
x264 [info]: frame P:18978 Avg QP:17.16 size: 41919
x264 [info]: frame B:55493 Avg QP:19.25 size: 11770
x264 [info]: consecutive B-frames: 2.2% 3.2% 7.1% 58.6% 11.3% 15.6% 1.3% 0.6% 0.1%
x264 [info]: mb I I16..4: 5.6% 80.1% 14.3%
x264 [info]: mb P I16..4: 2.2% 11.5% 1.1% P16..4: 43.6% 24.6% 13.4% 0.5% 0.1% skip: 3.0%
x264 [info]: mb B I16..4: 0.2% 1.0% 0.1% B16..8: 40.1% 10.2% 2.0% direct: 9.4% skip:36.9% L0:40.6% L1:44.6% BI:14.7%
x264 [info]: 8x8 transform intra:77.3% inter:63.6%
x264 [info]: direct mvs spatial:99.3% temporal:0.7%
x264 [info]: coded y,uvDC,uvAC intra: 77.1% 83.9% 54.1% inter: 27.5% 36.2% 3.6%
x264 [info]: i16 v,h,dc,p: 51% 11% 6% 32%
x264 [info]: i8 v,h,dc,ddl,ddr,vr,hd,vl,hu: 16% 11% 7% 7% 11% 13% 11% 12% 12%
x264 [info]: i4 v,h,dc,ddl,ddr,vr,hd,vl,hu: 17% 10% 4% 8% 13% 14% 12% 11% 10%
x264 [info]: i8c dc,h,v,p: 38% 21% 22% 19%
x264 [info]: Weighted P-Frames: Y:7.4% UV:3.0%
x264 [info]: ref P L0: 48.3% 11.2% 17.8% 6.2% 5.4% 4.0% 3.9% 2.6% 0.4% 0.0%
x264 [info]: ref B L0: 80.3% 10.6% 3.8% 2.1% 1.5% 1.0% 0.6%
x264 [info]: ref B L1: 95.6% 4.4%
x264 [info]: kb/s:3999.83
encoded 74932 frames, 13.28 fps, 3999.83 kb/s

Скриншоты

[Профиль] [ЛС]
Кто просматривает тему:

Показать сообщения:    

Текущее время: Сегодня 18:38

Часовой пояс: GMT



Вы не можете начинать темы
Вы не можете отвечать на сообщения
Вы не можете редактировать свои сообщения
Вы не можете удалять свои сообщения
Вы не можете голосовать в опросах
Вы не можете прикреплять файлы к сообщениям
Вы не можете скачивать файлы