Окулус / Oculus (2013) BDRip [1080p]

 
Автор Сообщение

sergej644 ®

Пол:

Стаж: 4 года 11 месяцев

Сообщений: 6041

Откуда: Soviet Union



Награды: Нет

Торрент-статистика

Создавать темы 02-Авг-2014 20:00

[Цитировать]

-Окулус / Oculus (2013) BDRip [1080p]- Год выпуска: 2013
Производство: США / Blumhouse Productions, Intrepid Pictures, WWE Studios
Жанр: Ужасы, Триллер
Режиссер: Майк Флэнеган
Продюсер: Марк Д. Эванс, Тревор Мэйси, Морган Питер Браун
Перевод: Дублированный (iTunes)
Субтитры: Отсутствуют
Актеры:
Мигель Сандовал, Анналиса Бассо, Карен Гиллан, Джеймс Лэфферти, Скотт Грэхэм, Кэти Сакхофф, Рори Кокрейн, Кейт Сигел, Гаррет Райан, Брентон Туэйтес
Описание фильма:
Смерть родителей сильно повлияла на судьбу двух осиротевших детей. По прошествии времени, в двадцатилетнем возрасте, сестра все еще продолжает так считать и хочет доказать брату, что привидение, вышедшее из зеркала, стало причиной гибели близких людей и всех случившихся последующих бед...-
Дата мировой премьеры: 8 сентября 2013
Дата российской премьеры: 10 апреля 2014, «Люксор»
Дата выхода DVD релиза: 29 мая 2014, «CD Land»
Продолжительность: 01:44:03
Качество видео: BDRip [1080p] [profile-LQ]
Видеокодек: MPEG-4 AVC/H.264
Битрейт видео: ~9014 Kbps
Размер кадра: 1920x800
Аудио #1: Русский: AC-3, 48.0 KHz, 6 ch, 384 Kbps, CBR
Аудио #2: Английский: DTS, 48.0 KHz, 6 ch, 1510 Kbps, CBR
Сэмпл: Скачать

MediaInfo:

Общее
Уникальный идентификатор : 216648746819248105057946897306937121031 (0xA2FD07E87E477421AE3FBEBAB7A6D907)
Полное имя : E:\Фильмы\Oculus.2013.BDRip.1080p.mkv
Формат : Matroska
Версия формата : Version 4 / Version 2
Размер файла : 7,92 Гбайт
Продолжительность : 1 ч. 44 м.
Общий поток : 10,9 Мбит/сек
Дата кодирования : UTC 2014-07-23 11:00:04
Программа кодирования : mkvmerge v7.0.0 ('Where We Going') 64bit built on Jun 9 2014 15:16:27
Библиотека кодирования : libebml v1.3.0 + libmatroska v1.4.1
DURATION : 01:44:03.243000000
NUMBER_OF_FRAMES : 585304
NUMBER_OF_BYTES : 1177631648
_STATISTICS_WRITING_APP : mkvmerge v7.0.0 ('Where We Going') 64bit built on Jun 9 2014 15:16:27
_STATISTICS_WRITING_DATE_UTC : 2014-07-23 11:00:04
_STATISTICS_TAGS : BPS DURATION NUMBER_OF_FRAMES NUMBER_OF_BYTES
Attachment : Yes
Видео
Идентификатор : 1
Формат : AVC
Формат/Информация : Advanced Video Codec
Профиль формата : [url=mailto:High@L4.1]High@L4.1[/url]
Параметр CABAC формата : Да
Параметр ReFrames формата : 5 кадров
Идентификатор кодека : V_MPEG4/ISO/AVC
Продолжительность : 1 ч. 44 м.
Битрейт : 9014 Кбит/сек
Ширина : 1920 пикселей
Высота : 800 пикселей
Соотношение сторон : 2,40:1
Режим частоты кадров : Постоянный
Частота кадров : 23,976 кадра/сек
Цветовое пространство : YUV
Субдискретизация насыщенности : 4:2:0
Битовая глубина : 8 бит
Тип развёртки : Прогрессивная
Бит/(Пиксели*Кадры) : 0.245
Размер потока : 6,39 Гбайт (81%)
Библиотека кодирования : x264 core 142 r2431 ac76440
Настройки программы : cabac=1 / ref=5 / deblock=1:0:0 / analyse=0x3:0x133 / me=umh / subme=7 / psy=1 / psy_rd=1.00:0.00 / mixed_ref=1 / me_range=16 / chroma_me=1 / trellis=1 / 8x8dct=1 / cqm=0 / deadzone=21,11 / fast_pskip=0 / chroma_qp_offset=-2 / threads=18 / lookahead_threads=3 / sliced_threads=0 / nr=0 / decimate=1 / interlaced=0 / bluray_compat=0 / constrained_intra=0 / bframes=3 / b_pyramid=2 / b_adapt=1 / b_bias=0 / direct=1 / weightb=1 / open_gop=0 / weightp=2 / keyint=250 / keyint_min=23 / scenecut=40 / intra_refresh=0 / rc_lookahead=40 / rc=2pass / mbtree=1 / bitrate=9014 / ratetol=1.0 / qcomp=0.60 / qpmin=0 / qpmax=69 / qpstep=4 / cplxblur=20.0 / qblur=0.5 / ip_ratio=1.40 / aq=1:1.00
Язык : English
Default : Да
Forced : Нет
DURATION : 01:44:03.164000000
NUMBER_OF_FRAMES : 149686
NUMBER_OF_BYTES : 7028109002
_STATISTICS_WRITING_APP : mkvmerge v7.0.0 ('Where We Going') 64bit built on Jun 9 2014 15:16:27
_STATISTICS_WRITING_DATE_UTC : 2014-07-23 11:00:04
_STATISTICS_TAGS : BPS DURATION NUMBER_OF_FRAMES NUMBER_OF_BYTES
Аудио #1
Идентификатор : 2
Формат : AC-3
Формат/Информация : Audio Coding 3
Расширение режима : CM (complete main)
Параметр Endianness формата : Big
Идентификатор кодека : A_AC3
Продолжительность : 1 ч. 44 м.
Вид битрейта : Постоянный
Битрейт : 384 Кбит/сек
Каналы : 6 каналов
Расположение каналов : Front: L C R, Side: L R, LFE
Частота : 48,0 КГц
Битовая глубина : 16 бит
Метод сжатия : С потерями
Размер потока : 286 Мбайт (4%)
Заголовок : AC3 / 5.1 / 384 Kbps / iTunes
Язык : Russian
Default : Да
Forced : Нет
Аудио #2
Идентификатор : 3
Формат : DTS
Формат/Информация : Digital Theater Systems
Режим : 16
Параметр Endianness формата : Big
Идентификатор кодека : A_DTS
Продолжительность : 1 ч. 44 м.
Вид битрейта : Постоянный
Битрейт : 1509 Кбит/сек
Каналы : 6 каналов
Расположение каналов : Front: L C R, Side: L R, LFE
Частота : 48,0 КГц
Битовая глубина : 24 бит
Метод сжатия : С потерями
Размер потока : 1,10 Гбайт (14%)
Заголовок : DTS / 5.1 / 1510 Kbps / Original
Язык : English
Default : Нет
Forced : Нет
Меню
00:00:00.000 : en:00:00:00.000
00:03:10.690 : en:00:03:10.690
00:07:26.571 : en:00:07:26.571
00:12:32.752 : en:00:12:32.752
00:14:41.881 : en:00:14:41.881
00:19:54.318 : en:00:19:54.318
00:24:35.057 : en:00:24:35.057
00:30:56.396 : en:00:30:56.396
00:34:01.414 : en:00:34:01.414
00:39:20.149 : en:00:39:20.149
00:42:50.109 : en:00:42:50.109
00:46:09.934 : en:00:46:09.934
00:51:21.412 : en:00:51:21.412
00:54:53.582 : en:00:54:53.582
00:57:14.389 : en:00:57:14.389
01:01:54.252 : en:01:01:54.252
01:08:05.540 : en:01:08:05.540
01:11:46.594 : en:01:11:46.594
01:14:19.497 : en:01:14:19.497
01:19:14.750 : en:01:19:14.750
01:23:16.700 : en:01:23:16.700
01:28:45.237 : en:01:28:45.237
01:34:24.617 : en:01:34:24.617
01:37:17.999 : en:01:37:17.999

Avdump:

File: E:\Фильмы\Oculus.2013.BDRip.1080p.mkv
Duration: 01:44:03 (6243.24)
Track #1: video
lang: Unknown (1)
codc: V_MPEG4/ISO/AVC -> H264/AVC (22)
reso: 1920x800 -> Unknown (aka not common)
fram: 23.976 fps
rate: 9006 kbps (9005.89)
dura: 01:44:03 (6243.12)
size: 6.55 GB (7028109002)
Track #2: audio (AC3 / 5.1 / 384 Kbps / iTunes)
lang: rus -> Russian (15)
codc: A_AC3 -> AC3 (2)
chan: 6 -> 5.1 Surround
samp: 48000 Hz
rate: 384 kbps (384.05)
dura: 01:44:03 (6242.62)
size: 285.80 MB (299683232)
Track #3: audio (DTS / 5.1 / 1510 Kbps / Original)
lang: Unknown (1)
codc: A_DTS -> DTS (13)
chan: 6 -> 5.1 Surround
samp: 48000 Hz
rate: 1509 kbps (1509.11)
dura: 01:44:03 (6243.17)
size: 1.10 GB (1177706966)
Sizes: (check sanity)
disk: 7.92 GB (8508502215)
atts: 960.60 KB (983654)
trac: 3.92 GB (4210531904) [based on track size]
bitr: 7.92 GB (8505514583) [based on bitrate]
tdif: 4.00 GB (4296986657) 50.50%
bdif: 1.91 MB (2003977) 0.02%
Скриншоты:
--
[Профиль] [ЛС]

Создавать темы 06-Авг-2015 23:22 (спустя 1 год)

Топик был перенесен из форума Фильмы до 2014 года в форум Фильмы (HD Rips | 720p, 1080p)
sergej644
 
Показать сообщения:    

Текущее время: Сегодня 16:57

Часовой пояс: GMT



Вы не можете начинать темы
Вы не можете отвечать на сообщения
Вы не можете редактировать свои сообщения
Вы не можете удалять свои сообщения
Вы не можете голосовать в опросах
Вы не можете прикреплять файлы к сообщениям
Вы не можете скачивать файлы