Октагон / The Octagon (1980) BDRip 1080p | P, A

 
Автор Сообщение

Russian Mafia ®

Пол:

Стаж: 1 год 8 месяцев

Сообщений: 4247



Награды: 10 (Подробнее)

За внесенный вклад в развитие сайта (Количество: 1) Mega Seeder 1 (Количество: 1) Mega Seeder 4 (Количество: 1)
Торрент-статистика

Создавать темы 11-Апр-2016 17:55

[Цитировать]

Информация о фильме
Название: Октагон
Оригинальное название: The Octagon
Год выпуска: 1980
Страна: США
Жанр: Боевик
Продолжительность: 01:44:00
Перевод: Профессиональный (многоголосый закадровый) НТВ+
Перевод: Авторский (одноголосый закадровый) А. Гаврилов
Перевод: Авторский (одноголосый закадровый) А. Марченко
Перевод: Авторский (одноголосый закадровый) Ю. Живов
Режиссер: Эрик Карсон
В ролях: Чак Норрис, Карен Карлсон, Ли Ван Клиф, Арт Хиндл, Кэрол Багдасарян, Тадаси Ямасита, Ким Лэнкфорд, Ларри Д. Манн, Курт Грэйсон, Ричард Норт
Описание: Скотт Джеймс, бывший чемпион по каратэ, нанимается в телохранители к богатой женщине Джастин, на которую охотятся ниндзя. Вскоре ему становится известно, что ими верховодит его заклятый враг Сэйкура.

Файл
Качество: BDRip 1080p
Видео: MPEG4 Video (H264), 1920x1080, 23.976fps, 14.0 Mbps
Аудио #1: Русский, Dolby AC3, 48000 Hz, 2ch, 192 kbps - Многоголосый, НТВ+
Аудио #2: Русский, Dolby AC3, 48000 Hz, 2ch, 192 kbps - Одноголосый, Гаврилов
Аудио #3: Русский, Dolby AC3, 48000 Hz, 2ch, 192 kbps - Одноголосый, Марченко
Аудио #4: Русский, Dolby AC3, 48000 Hz, 6ch, 448 kbps - Одноголосый, Живов
Аудио #5: Английский, Dolby AC3, 48000 Hz, 6ch, 448 kbps
Сэмпл

MediaInfo:

General
Unique ID : 215840068449616609495753445181912164928 (0xA26148FC7B694A16910EF7953E96AA40)
Complete name : F:Torrent 21980.Octagon.renta23.mkv
Format : Matroska
Format version : Version 4 / Version 2
File size : 11.2 GiB
Duration : 1h 44mn
Overall bit rate : 15.5 Mbps
Movie name : 1980 Октагон / renta23
Encoded date : UTC 2016-04-05 17:58:16
Writing application : mkvmerge v8.3.0 ('Over the Horizon') 64bit
Writing library : libebml v1.3.1 + libmatroska v1.4.2
Video
ID : 1
Format : AVC
Format/Info : Advanced Video Codec
Format profile : High@L4.1
Format settings, CABAC : Yes
Format settings, ReFrames : 4 frames
Codec ID : V_MPEG4/ISO/AVC
Duration : 1h 44mn
Bit rate : 14.0 Mbps
Width : 1 920 pixels
Height : 1 080 pixels
Display aspect ratio : 16:9
Frame rate mode : Constant
Frame rate : 23.976 (24000/1001) fps
Color space : YUV
Chroma subsampling : 4:2:0
Bit depth : 8 bits
Scan type : Progressive
Bits/(Pixel*Frame) : 0.282
Stream size : 10.2 GiB (90%)
Title : 1980 Октагон
Writing library : x264 core 146 r2538 121396c
Encoding settings : cabac=1 / ref=4 / deblock=1:-1:-1 / analyse=0x3:0x133 / me=umh / subme=11 / psy=1 / psy_rd=1.07:0.23 / mixed_ref=1 / me_range=32 / chroma_me=1 / trellis=2 / 8x8dct=1 / cqm=0 / deadzone=21,11 / fast_pskip=0 / chroma_qp_offset=-3 / threads=12 / lookahead_threads=3 / sliced_threads=0 / nr=0 / decimate=1 / interlaced=0 / bluray_compat=0 / constrained_intra=0 / bframes=14 / b_pyramid=2 / b_adapt=2 / b_bias=0 / direct=3 / weightb=1 / open_gop=0 / weightp=2 / keyint=250 / keyint_min=23 / scenecut=40 / intra_refresh=0 / rc=2pass / mbtree=0 / bitrate=14000 / ratetol=1.0 / qcomp=0.60 / qpmin=0 / qpmax=69 / qpstep=4 / cplxblur=20.0 / qblur=0.5 / ip_ratio=1.40 / pb_ratio=1.30 / aq=2:1.00
Language : English
Default : Yes
Forced : No
Audio #1
ID : 2
Format : AC-3
Format/Info : Audio Coding 3
Mode extension : CM (complete main)
Format settings, Endianness : Big
Codec ID : A_AC3
Duration : 1h 44mn
Bit rate mode : Constant
Bit rate : 192 Kbps
Channel(s) : 2 channels
Channel positions : Front: L R
Sampling rate : 48.0 KHz
Frame rate : 31.250 fps (1536 spf)
Compression mode : Lossy
Stream size : 143 MiB (1%)
Title : Многоголосый, НТВ+
Language : Russian
Default : Yes
Forced : No
Audio #2
ID : 3
Format : AC-3
Format/Info : Audio Coding 3
Mode extension : CM (complete main)
Format settings, Endianness : Big
Codec ID : A_AC3
Duration : 1h 44mn
Bit rate mode : Constant
Bit rate : 192 Kbps
Channel(s) : 2 channels
Channel positions : Front: L R
Sampling rate : 48.0 KHz
Frame rate : 31.250 fps (1536 spf)
Compression mode : Lossy
Stream size : 143 MiB (1%)
Title : Одноголосый, Гаврилов
Language : Russian
Default : No
Forced : No
Audio #3
ID : 4
Format : AC-3
Format/Info : Audio Coding 3
Mode extension : CM (complete main)
Format settings, Endianness : Big
Codec ID : A_AC3
Duration : 1h 44mn
Bit rate mode : Constant
Bit rate : 192 Kbps
Channel(s) : 2 channels
Channel positions : Front: L R
Sampling rate : 48.0 KHz
Frame rate : 31.250 fps (1536 spf)
Compression mode : Lossy
Stream size : 143 MiB (1%)
Title : Одноголосый, Марченко
Language : Russian
Default : No
Forced : No
Audio #4
ID : 5
Format : AC-3
Format/Info : Audio Coding 3
Mode extension : CM (complete main)
Format settings, Endianness : Big
Codec ID : A_AC3
Duration : 1h 44mn
Bit rate mode : Constant
Bit rate : 448 Kbps
Channel(s) : 6 channels
Channel positions : Front: L C R, Side: L R, LFE
Sampling rate : 48.0 KHz
Frame rate : 31.250 fps (1536 spf)
Compression mode : Lossy
Stream size : 333 MiB (3%)
Title : Одноголосый, Живов
Language : Russian
Default : No
Forced : No
Audio #5
ID : 6
Format : AC-3
Format/Info : Audio Coding 3
Mode extension : CM (complete main)
Format settings, Endianness : Big
Codec ID : A_AC3
Duration : 1h 44mn
Bit rate mode : Constant
Bit rate : 448 Kbps
Channel(s) : 6 channels
Channel positions : Front: L C R, Side: L R, LFE
Sampling rate : 48.0 KHz
Frame rate : 31.250 fps (1536 spf)
Compression mode : Lossy
Stream size : 333 MiB (3%)
Language : English
Default : No
Forced : No
Menu
00:00:00.000 : en:Arrival
00:06:16.200 : en:Ninja's Revenge
00:10:07.501 : en:First Teaching
00:11:21.401 : en:They Weren't Terrorists
00:12:05.201 : en:Mercenary's Point of View
00:15:09.302 : en:Reasons Not to Compete
00:16:09.402 : en:Damsel Not in Distress
00:20:39.402 : en:What to Do With a Terrorist
00:22:58.102 : en:The Beginning of the Truth
00:28:37.502 : en:Digging for the Truth
00:31:33.702 : en:The Past Becomes the Present
00:37:00.203 : en:Finding the Way In
00:40:39.403 : en:The Inner Truth
00:47:49.003 : en:Why Can't They Begin?
00:56:20.403 : en:Last Pieces of the Puzzle
01:01:48.203 : en:The Decision Is Made
01:08:11.204 : en:No Turning Back Now
01:13:18.204 : en:Finding the Octagon
01:21:09.006 : en:The Assault Against Evil
01:27:51.606 : en:Earning the Right to Fight
01:31:03.306 : en:Conquest Without Victory
01:35:19.306 : en:Revolt Against the Ninja
01:39:26.306 : en:Death of Evil
01:41:28.007 : en:Credits

[Профиль] [ЛС]
Кто просматривает тему:

Показать сообщения:    

Текущее время: Сегодня 13:58

Часовой пояс: GMT



Вы не можете начинать темы
Вы не можете отвечать на сообщения
Вы не можете редактировать свои сообщения
Вы не можете удалять свои сообщения
Вы не можете голосовать в опросах
Вы не можете прикреплять файлы к сообщениям
Вы не можете скачивать файлы