Око за око (Геннадий Полока) [2010, Беларусь, Историческая драма, SATRip]

 
Автор Сообщение

painkiller ®

Стаж: 2 года 3 месяца

Сообщений: 582



Награды: Нет

Торрент-статистика

Создавать темы 15-Авг-2014 01:08

[Цитировать]

Око за око
Страна: Беларусь
Жанр: Историческая драма
Год выпуска: 2010
Продолжительность: 1:59:50
Перевод: Не требуется
Режиссер: Геннадий Полока
В ролях: Михаил Пахоменко, Владимир Гостюхин, Ростислав Янковский, Эрнст Романов, Максим Костромыкин, Иван Мацкевич, Александр Гордон (II), Алеся Пуховая, Олег Коц, Александр Кашперов (II), Родион Вьюшкин, Александр Давыдов (VIII), Валерий Зеленский (II), Нина Пискарёва, Сергей Прокопич, Любовь Румянцева, Владимир Мищанчук, Виктор Васильев (II), Андрей Дударенко, Игорь Блинков
Описание: Фильм снят по повести Бориса Лавренева «Седьмой спутник».
История о революции, которую принимает удивительный, интеллигентный генерал царской армии Евгений Адамов и гибнет за нее.
Доп. информация: Награды, номинации, фестивали
Приз кинофестиваля актеров кино «Созвездие» режиссеру Г.Полоке «За создание лучшего актерского ансамбля»
Приз кинофестиваля актеров кино «Созвездие» М.Пахоменко «За исполнение главной роли»
Приз международного кинофестиваля военно-патриотического фильма имени С. Ф.Бондарчука «Волоколамский рубеж» режиссеру Г.Полоке «За лучшую режиссуру»
Приз «За вклад в киноискусство» на кинофестивале во Владикавказе
Приз «За вклад в киноискусство» сербского кинофонда (Сербия)
Спецприз Всекитайского Союза Кинематографистов «За вклад в киноискусство»
Приз Министерства культуры Китая «За продолжение революционных традиций»
Приз имени Л.Кулешова и А.Хохловой «За выдающиеся достижения в
кинообразовании»
Приз Международного кинофестиваля в Риге «За вклад в развитие кинематографии»
Приз международного кинофестиваля военно-патриотического фильма имени С. Ф.Бондарчука «Волоколамский рубеж» режиссеру Г.Полоке «За вклад в развитие кинематографа»
Сэмпл: http://multi-up.com/954919
Качество видео: SATRip
Формат видео: AVI
Видео: XviD , 704x400 (1.76:1) , 25 fps , 2351 kbps avg
Аудио: AC3 , 48 kHz , 160.00 kbps avg , 2/0 (L,R) ch

MediaInfo

General
Complete name Око за око 2010.avi
Format : AVI
Format/Info : Audio Video Interleave
Format profile : OpenDML
File size : 2.11 GiB
Duration : 1h 59mn
Overall bit rate : 2 519 Kbps
Writing library : VirtualDub build 35390/release
Video
ID : 0
Format : MPEG-4 Visual
Format profile : Advanced Simple@L5
Format settings, BVOP : 1
Format settings, QPel : No
Format settings, GMC : No warppoints
Format settings, Matrix : Default (H.263)
Codec ID : XVID
Codec ID/Hint : XviD
Duration : 1h 59mn
Bit rate : 2 346 Kbps
Width : 704 pixels
Height : 400 pixels
Display aspect ratio : 16:9
Frame rate : 25.000 fps
Color space : YUV
Chroma subsampling : 4:2:0
Bit depth : 8 bits
Scan type : Progressive
Compression mode : Lossy
Bits/(Pixel*Frame) : 0.333
Stream size : 1.96 GiB (93%)
Writing library : XviD 1.1.2 (UTC 2006-11-01)
Audio
ID : 1
Format : AC-3
Format/Info : Audio Coding 3
Mode extension : CM (complete main)
Format settings, Endianness : Big
Codec ID : 2000
Duration : 1h 59mn
Bit rate mode : Constant
Bit rate : 160 Kbps
Channel(s) : 2 channels
Channel positions : Front: L R
Sampling rate : 48.0 KHz
Bit depth : 16 bits
Compression mode : Lossy
Stream size : 137 MiB (6%)
Alignment : Split accross interleaves
Interleave, duration : 40 ms (1.00 video frame)
Interleave, preload duration : 512 ms

Скриншот c названием фильма

Скриншоты

[Профиль] [ЛС]

Создавать темы 06-Авг-2015 23:11 (спустя 11 месяцев 22 дня)

Топик был перенесен из форума Фильмы до 2014 года в форум Фильмы до 2012 года
sergej644
 

Создавать темы 12-Июн-2016 07:54 (спустя 1 год 9 месяцев)

Топик был перенесен из форума Фильмы 2011 года в форум Фильмы 2010 года
Russian Mafia
 
Кто просматривает тему:

Показать сообщения:    

Текущее время: Сегодня 05:18

Часовой пояс: GMT



Вы не можете начинать темы
Вы не можете отвечать на сообщения
Вы не можете редактировать свои сообщения
Вы не можете удалять свои сообщения
Вы не можете голосовать в опросах
Вы не можете прикреплять файлы к сообщениям
Вы не можете скачивать файлы