Око за око / An Eye For An Eye (1981) BDRip 1080p | P, P2, A

 
Автор Сообщение

Russian Mafia ®

Пол:

Стаж: 1 год 8 месяцев

Сообщений: 4257



Награды: 10 (Подробнее)

За внесенный вклад в развитие сайта (Количество: 1) Top Releaser 2 (Количество: 1) Mega Seeder 3 (Количество: 1)
Торрент-статистика

Создавать темы 11-Апр-2016 14:44

[Цитировать]

Информация о фильме
Название: Око за око
Оригинальное название: An Eye For An Eye
Год выпуска: 1981
Страна: США
Жанр: Боевик
Продолжительность: 01:45:05
Перевод: Профессиональный (многоголосый закадровый) |R5|
Перевод: Профессиональный (двухголосый закадровый) |Екатеринбург Арт|
Перевод: Авторский (одноголосый закадровый) |А.Гаврилов|
Перевод: Авторский (одноголосый закадровый) |В.Горчаков|
Перевод: Авторский (одноголосый закадровый) |А.Михалёв|
Перевод: Авторский (одноголосый закадровый) |Ю.Сербин|
Режиссер: Стив Карвер
В ролях: Чак Норрис, Кристофер Ли, Ричард Раундтри, Мэтт Кларк, Мако, Мэгги Купер, Розалинд Чао, Профессор Тору Танака, Стюарт Пэнкин, Терри Кайзер
Описание: После гибели своего напарника полицейский из отдела по борьбе с наркотиками Шон Кейн вынужден уйти в отставку. Но когда убивают тележурналистку Линду, подругу его погибшего товарища, Кейн начинает собственное расследование.
Он выясняет, что убийства имеют прямое отношение к тайным операциям с наркотиками, которые проводят гонконгские триады.
Узнав, что в криминальном бизнесе замешаны и некоторые из его коллег-полицейских, Кейн берет правосудие в свои руки и решает сам, в одиночку, разобраться с преступниками…

Файл
Качество: BDRip 1080p
Видео: MPEG4 Video (H264), 1920x1040, 23.976fps, 14.7 Mbps
Аудио #1: Русский, Dolby AC3, 48000 Hz, 6ch, 448 kbps - Многоголосый, R5
Аудио #2: Русский, Dolby AC3, 48000 Hz, 2ch, 192 kbps - Двухголосый, Екатеринбург Арт
Аудио #3: Русский, Dolby AC3, 48000 Hz, 2ch, 448 kbps - Одноголосый, А. Гаврилов
Аудио #4: Русский, Dolby AC3, 48000 Hz, 2ch, 192 kbps - Одноголосый, В. Горчаков
Аудио #5: Русский, Dolby AC3, 48000 Hz, 2ch, 192 kbps - Одноголосый, А. Михалев
Аудио #6: Русский, Dolby AC3, 48000 Hz, 2ch, 192 kbps - Одноголосый, Ю. Сербин
Аудио #7: Английский, Dolby AC3, 48000 Hz, 2ch, 448 kbps
Сэмпл

MediaInfo:

General
Unique ID : 185533943657358167980894650450219709511 (0x8B9489ABE26074029172C48B7EAD3447)
Complete name : F:Torrent 21981.An.Eye.For.An.Eye.renta23.mkv
Format : Matroska
Format version : Version 4 / Version 2
File size : 12.3 GiB
Duration : 1h 45mn
Overall bit rate : 16.8 Mbps
Movie name : 1981 Око за око / renta23
Encoded date : UTC 2016-04-03 07:03:55
Writing application : mkvmerge v8.3.0 ('Over the Horizon') 64bit
Writing library : libebml v1.3.1 + libmatroska v1.4.2
Video
ID : 1
Format : AVC
Format/Info : Advanced Video Codec
Format profile : High@L4.1
Format settings, CABAC : Yes
Format settings, ReFrames : 4 frames
Codec ID : V_MPEG4/ISO/AVC
Duration : 1h 45mn
Bit rate : 14.7 Mbps
Width : 1 920 pixels
Height : 1 040 pixels
Display aspect ratio : 1.85:1
Frame rate mode : Constant
Frame rate : 23.976 (24000/1001) fps
Color space : YUV
Chroma subsampling : 4:2:0
Bit depth : 8 bits
Scan type : Progressive
Bits/(Pixel*Frame) : 0.307
Stream size : 10.8 GiB (87%)
Title : 1981 Око за око
Writing library : x264 core 146 r2538 121396c
Encoding settings : cabac=1 / ref=4 / deblock=1:-1:-1 / analyse=0x3:0x133 / me=umh / subme=11 / psy=1 / psy_rd=1.00:0.15 / mixed_ref=1 / me_range=32 / chroma_me=1 / trellis=2 / 8x8dct=1 / cqm=0 / deadzone=21,11 / fast_pskip=0 / chroma_qp_offset=-3 / threads=12 / lookahead_threads=3 / sliced_threads=0 / nr=0 / decimate=1 / interlaced=0 / bluray_compat=0 / constrained_intra=0 / bframes=16 / b_pyramid=2 / b_adapt=2 / b_bias=0 / direct=3 / weightb=1 / open_gop=0 / weightp=2 / keyint=250 / keyint_min=23 / scenecut=40 / intra_refresh=0 / rc=2pass / mbtree=0 / bitrate=14700 / ratetol=1.0 / qcomp=0.60 / qpmin=0 / qpmax=69 / qpstep=4 / cplxblur=20.0 / qblur=0.5 / ip_ratio=1.40 / pb_ratio=1.30 / aq=2:1.00
Language : English
Default : Yes
Forced : No
Audio #1
ID : 2
Format : AC-3
Format/Info : Audio Coding 3
Mode extension : CM (complete main)
Format settings, Endianness : Big
Codec ID : A_AC3
Duration : 1h 45mn
Bit rate mode : Constant
Bit rate : 448 Kbps
Channel(s) : 6 channels
Channel positions : Front: L C R, Side: L R, LFE
Sampling rate : 48.0 KHz
Frame rate : 31.250 fps (1536 spf)
Compression mode : Lossy
Stream size : 337 MiB (3%)
Title : Многоголосый, R5
Language : Russian
Default : Yes
Forced : No
Audio #2
ID : 3
Format : AC-3
Format/Info : Audio Coding 3
Mode extension : CM (complete main)
Format settings, Endianness : Big
Codec ID : A_AC3
Duration : 1h 45mn
Bit rate mode : Constant
Bit rate : 192 Kbps
Channel(s) : 2 channels
Channel positions : Front: L R
Sampling rate : 48.0 KHz
Frame rate : 31.250 fps (1536 spf)
Compression mode : Lossy
Stream size : 144 MiB (1%)
Title : Двухголосый, Екатеринбург Арт
Language : Russian
Default : No
Forced : No
Audio #3
ID : 4
Format : AC-3
Format/Info : Audio Coding 3
Mode extension : CM (complete main)
Format settings, Endianness : Big
Codec ID : A_AC3
Duration : 1h 45mn
Bit rate mode : Constant
Bit rate : 448 Kbps
Channel(s) : 2 channels
Channel positions : Front: L R
Sampling rate : 48.0 KHz
Frame rate : 31.250 fps (1536 spf)
Compression mode : Lossy
Stream size : 337 MiB (3%)
Title : Одноголосый, А. Гаврилов
Language : Russian
Default : No
Forced : No
Audio #4
ID : 5
Format : AC-3
Format/Info : Audio Coding 3
Mode extension : CM (complete main)
Format settings, Endianness : Big
Codec ID : A_AC3
Duration : 1h 45mn
Bit rate mode : Constant
Bit rate : 192 Kbps
Channel(s) : 2 channels
Channel positions : Front: L R
Sampling rate : 48.0 KHz
Frame rate : 31.250 fps (1536 spf)
Compression mode : Lossy
Stream size : 144 MiB (1%)
Title : Одноголосый, В. Горчаков
Language : Russian
Default : No
Forced : No
Audio #5
ID : 6
Format : AC-3
Format/Info : Audio Coding 3
Mode extension : CM (complete main)
Format settings, Endianness : Big
Codec ID : A_AC3
Duration : 1h 45mn
Bit rate mode : Constant
Bit rate : 192 Kbps
Channel(s) : 2 channels
Channel positions : Front: L R
Sampling rate : 48.0 KHz
Frame rate : 31.250 fps (1536 spf)
Compression mode : Lossy
Stream size : 144 MiB (1%)
Title : Одноголосый, А. Михалев
Language : Russian
Default : No
Forced : No
Audio #6
ID : 7
Format : AC-3
Format/Info : Audio Coding 3
Mode extension : CM (complete main)
Format settings, Endianness : Big
Codec ID : A_AC3
Duration : 1h 45mn
Bit rate mode : Constant
Bit rate : 192 Kbps
Channel(s) : 2 channels
Channel positions : Front: L R
Sampling rate : 48.0 KHz
Frame rate : 31.250 fps (1536 spf)
Compression mode : Lossy
Stream size : 144 MiB (1%)
Title : Одноголосый, Ю. Сербин
Language : Russian
Default : No
Forced : No
Audio #7
ID : 8
Format : AC-3
Format/Info : Audio Coding 3
Mode extension : CM (complete main)
Format settings, Endianness : Big
Codec ID : A_AC3
Duration : 1h 45mn
Bit rate mode : Constant
Bit rate : 448 Kbps
Channel(s) : 2 channels
Channel positions : Front: L R
Sampling rate : 48.0 KHz
Frame rate : 31.250 fps (1536 spf)
Compression mode : Lossy
Stream size : 337 MiB (3%)
Language : English
Default : No
Forced : No
Menu
00:00:00.000 : en:Chapter 01
00:11:34.235 : en:Chapter 02
00:31:08.575 : en:Chapter 03
00:41:11.093 : en:Chapter 04
00:51:48.355 : en:Chapter 05
01:04:45.464 : en:Chapter 06
01:15:16.887 : en:Chapter 07
01:27:42.465 : en:Chapter 08

[Профиль] [ЛС]
Кто просматривает тему:

Показать сообщения:    

Текущее время: Сегодня 03:23

Часовой пояс: GMT



Вы не можете начинать темы
Вы не можете отвечать на сообщения
Вы не можете редактировать свои сообщения
Вы не можете удалять свои сообщения
Вы не можете голосовать в опросах
Вы не можете прикреплять файлы к сообщениям
Вы не можете скачивать файлы