Околофутбола (Антон Борматов) [2013, Россия, драма, криминал, спорт, Blu-ray disc] + Original Rus

 
Автор Сообщение

painkiller ®

Стаж: 2 года 3 месяца

Сообщений: 582



Награды: Нет

Торрент-статистика

Создавать темы 15-Авг-2014 10:18

[Цитировать]

Околофутбола-НАС НЕ ИЗМЕНИТЬ-
Страна: Россия
Студия: Фонд кино, Front Line Studio, Кинокомпания CTB
Жанр: драма, криминал, спорт
Год выпуска: 2013
Продолжительность: 01:32:57
Перевод: Не требуется
Cубтитры: нет
Оригинальная аудиодорожка: русский
Режиссер: Антон Борматов
В ролях: Александр Ратников, Павел Ерлыков, Григорий Иванец, Иван Фоминов, Дарья Мингазетдинова, Владимир Царулков, Юлия Маньковская
Описание: Фильм о самой закрытой части футбольных болельщиков — околофутбольных хулиганах. Они — самые агрессивные и жестокие представители мира футбольных фанатов. Они — элита околофутбола. Кем бы они ни были в обычной жизни — студентами или банкирами, музыкантами или автомеханиками, на самом деле все они — одна «фирма». Попасть в «фирму» очень сложно, но если ты в ней оказался — это на всю жизнь. И обратного пути нет.
*****
Возраст: зрителям, достигшим 16 лет
*****
Меню: есть

Тип релиза: Blu-ray disc
Контейнер: BDMV
Видео: MPEG-4 AVC Video 24112 kbps 1080p / 24 fps / 16:9 / High Profile 4.1
Аудио: LPCM Audio Russian 4608 kbps 5.1 / 48 kHz / 4608 kbps / 16-bit

MediaInfo

Disc Title: Околофутбола_2013
Disc Size: 22 299 968 230 bytes
Protection: AACS
BD-Java: Yes
BDInfo: 0.5.8
Notes:
BDINFO HOME:
Cinema Squid
http://www.cinemasquid.com/blu-ray/tools/bdinfo
INCLUDES FORUMS REPORT FOR:
AVS Forum Blu-ray Audio and Video Specifications Thread
http://www.avsforum.com/avs-vb/showthread.php?t=1155731
********************
PLAYLIST: 00003.MPLS
********************
Total   Video
Title                                                           Codec   Length  Movie Size      Disc Size       Bitrate Bitrate Main Audio Track                          Secondary Audio Track
-----                                                           ------  ------- --------------  --------------  ------- ------- ------------------                        ---------------------
00003.MPLS                                                      AVC     1:36:49 21 906 407 424  22 299 968 230  30,17   24,11   LPCM 5.1 4608Kbps (48kHz/16-bit)
DISC INFO:
Disc Title:     Околофутбола_2013
Disc Size:      22 299 968 230 bytes
Protection:     AACS
BD-Java:        Yes
BDInfo:         0.5.8
PLAYLIST REPORT:
Name:                   00003.MPLS
Length:                 1:36:49.583 (h:m:s.ms)
Size:                   21 906 407 424 bytes
Total Bitrate:          30,17 Mbps
VIDEO:
Codec                   Bitrate             Description
-----                   -------             -----------
MPEG-4 AVC Video        24112 kbps          1080p / 24 fps / 16:9 / High Profile 4.1
AUDIO:
Codec                           Language        Bitrate         Description
-----                           --------        -------         -----------
LPCM Audio                      Russian         4608 kbps       5.1 / 48 kHz / 4608 kbps / 16-bit
FILES:
Name            Time In         Length          Size            Total Bitrate
----            -------         ------          ----            -------------
00003.M2TS      0:00:00.000     1:36:49.583     21 906 407 424  30 166
CHAPTERS:
Number          Time In         Length          Avg Video Rate  Max 1-Sec Rate  Max 1-Sec Time  Max 5-Sec Rate  Max 5-Sec Time  Max 10Sec Rate  Max 10Sec Time  Avg Frame Size  Max Frame Size  Max Frame Time
------          -------         ------          --------------  --------------  --------------  --------------  --------------  --------------  --------------  --------------  --------------  --------------
1               0:00:00.000     1:36:49.583     24 112 kbps     48 287 kbps     00:01:01.125    36 631 kbps     00:00:57.750    32 598 kbps     00:00:52.708    125 586 bytes   957 436 bytes   01:10:16.250
STREAM DIAGNOSTICS:
File            PID             Type            Codec           Language                Seconds                 Bitrate                 Bytes           Packets
----            ---             ----            -----           --------                --------------          --------------          -------------   -----
00003.M2TS      4113 (0x1011)   0x1B            AVC                                     5809,458                24 113                  17 510 428 549  95 247 026
00003.M2TS      4352 (0x1100)   0x80            LPCM            rus (Russian)           5809,458                4 614                   3 350 965 376   18 590 669
QUICK SUMMARY:
Disc Title: Околофутбола_2013
Disc Size: 22 299 968 230 bytes
Protection: AACS
BD-Java: Yes
Playlist: 00003.MPLS
Size: 21 906 407 424 bytes
Length: 1:36:49.583
Total Bitrate: 30,17 Mbps
Video: MPEG-4 AVC Video / 24112 kbps / 1080p / 24 fps / 16:9 / High Profile 4.1
Audio: Russian / LPCM Audio / 5.1 / 48 kHz / 4608 kbps / 16-bit
********************
PLAYLIST: 01002.MPLS
********************
Total   Video
Title                                                           Codec   Length  Movie Size      Disc Size       Bitrate Bitrate Main Audio Track                          Secondary Audio Track
-----                                                           ------  ------- --------------  --------------  ------- ------- ------------------                        ---------------------
01002.MPLS                                                      AVC     1:36:49 21 906 407 424  22 299 968 230  30,17   24,11   LPCM 5.1 4608Kbps (48kHz/16-bit)
DISC INFO:
Disc Title:     Околофутбола_2013
Disc Size:      22 299 968 230 bytes
Protection:     AACS
BD-Java:        Yes
BDInfo:         0.5.8
PLAYLIST REPORT:
Name:                   01002.MPLS
Length:                 1:36:49.583 (h:m:s.ms)
Size:                   21 906 407 424 bytes
Total Bitrate:          30,17 Mbps
VIDEO:
Codec                   Bitrate             Description
-----                   -------             -----------
MPEG-4 AVC Video        24112 kbps          1080p / 24 fps / 16:9 / High Profile 4.1
AUDIO:
Codec                           Language        Bitrate         Description
-----                           --------        -------         -----------
LPCM Audio                      Russian         4608 kbps       5.1 / 48 kHz / 4608 kbps / 16-bit
FILES:
Name            Time In         Length          Size            Total Bitrate
----            -------         ------          ----            -------------
00003.M2TS      0:00:00.000     1:36:49.583     21 906 407 424  30 166
CHAPTERS:
Number          Time In         Length          Avg Video Rate  Max 1-Sec Rate  Max 1-Sec Time  Max 5-Sec Rate  Max 5-Sec Time  Max 10Sec Rate  Max 10Sec Time  Avg Frame Size  Max Frame Size  Max Frame Time
------          -------         ------          --------------  --------------  --------------  --------------  --------------  --------------  --------------  --------------  --------------  --------------
1               0:00:00.000     0:10:58.291     24 251 kbps     48 287 kbps     00:01:01.125    36 631 kbps     00:00:57.750    32 598 kbps     00:00:52.708    126 301 bytes   880 725 bytes   00:01:05.750
2               0:10:58.291     0:12:10.958     24 171 kbps     34 906 kbps     00:11:34.041    30 953 kbps     00:21:35.583    28 540 kbps     00:12:14.958    125 892 bytes   658 445 bytes   00:11:39.500
3               0:23:09.250     0:13:20.708     24 995 kbps     36 720 kbps     00:30:16.708    31 983 kbps     00:28:22.750    31 393 kbps     00:28:22.749    130 184 bytes   796 581 bytes   00:30:16.750
4               0:36:29.958     0:11:41.291     23 477 kbps     35 952 kbps     00:41:30.791    30 296 kbps     00:41:30.416    27 584 kbps     00:45:16.583    122 278 bytes   902 477 bytes   00:41:18.375
5               0:48:11.250     0:13:28.208     24 338 kbps     37 841 kbps     00:57:34.458    32 216 kbps     00:57:32.916    31 188 kbps     00:56:24.583    126 760 bytes   754 491 bytes   00:57:33.500
6               1:01:39.458     0:12:10.541     24 558 kbps     40 754 kbps     01:10:16.208    31 621 kbps     01:09:12.291    28 912 kbps     01:08:18.541    127 904 bytes   957 436 bytes   01:10:16.250
7               1:13:50.000     0:09:59.666     24 639 kbps     39 892 kbps     01:15:03.958    32 442 kbps     01:15:03.958    30 478 kbps     01:19:27.291    128 327 bytes   665 985 bytes   01:23:30.750
8               1:23:49.666     0:12:59.916     22 550 kbps     35 528 kbps     01:25:48.458    31 186 kbps     01:29:35.333    30 831 kbps     01:29:31.708    117 453 bytes   638 493 bytes   01:26:38.666
STREAM DIAGNOSTICS:
File            PID             Type            Codec           Language                Seconds                 Bitrate                 Bytes           Packets
----            ---             ----            -----           --------                --------------          --------------          -------------   -----
00003.M2TS      4113 (0x1011)   0x1B            AVC                                     5809,458                24 113                  17 510 428 549  95 247 026
00003.M2TS      4352 (0x1100)   0x80            LPCM            rus (Russian)           5809,458                4 614                   3 350 965 376   18 590 669
QUICK SUMMARY:
Disc Title: Околофутбола_2013
Disc Size: 22 299 968 230 bytes
Protection: AACS
BD-Java: Yes
Playlist: 01002.MPLS
Size: 21 906 407 424 bytes
Length: 1:36:49.583
Total Bitrate: 30,17 Mbps
Video: MPEG-4 AVC Video / 24112 kbps / 1080p / 24 fps / 16:9 / High Profile 4.1
Audio: Russian / LPCM Audio / 5.1 / 48 kHz / 4608 kbps / 16-bit
********************
PLAYLIST: 00002.MPLS
********************
Total   Video
Title                                                           Codec   Length  Movie Size      Disc Size       Bitrate Bitrate Main Audio Track                          Secondary Audio Track
-----                                                           ------  ------- --------------  --------------  ------- ------- ------------------                        ---------------------
00002.MPLS                                                      AVC     0:01:57 355 411 968     22 299 968 230  24,30   21,43   LPCM 2.0 1536Kbps (48kHz/16-bit)
DISC INFO:
Disc Title:     Околофутбола_2013
Disc Size:      22 299 968 230 bytes
Protection:     AACS
BD-Java:        Yes
BDInfo:         0.5.8
PLAYLIST REPORT:
Name:                   00002.MPLS
Length:                 0:01:57.000 (h:m:s.ms)
Size:                   355 411 968 bytes
Total Bitrate:          24,30 Mbps
VIDEO:
Codec                   Bitrate             Description
-----                   -------             -----------
MPEG-4 AVC Video        21431 kbps          1080p / 24 fps / 16:9 / High Profile 4.1
AUDIO:
Codec                           Language        Bitrate         Description
-----                           --------        -------         -----------
LPCM Audio                      Russian         1536 kbps       2.0 / 48 kHz / 1536 kbps / 16-bit
FILES:
Name            Time In         Length          Size            Total Bitrate
----            -------         ------          ----            -------------
00002.M2TS      0:00:00.000     0:01:57.000     355 411 968     24 302
CHAPTERS:
Number          Time In         Length          Avg Video Rate  Max 1-Sec Rate  Max 1-Sec Time  Max 5-Sec Rate  Max 5-Sec Time  Max 10Sec Rate  Max 10Sec Time  Avg Frame Size  Max Frame Size  Max Frame Time
------          -------         ------          --------------  --------------  --------------  --------------  --------------  --------------  --------------  --------------  --------------  --------------
1               0:00:00.000     0:01:57.000     21 431 kbps     32 155 kbps     00:00:00.208    23 896 kbps     00:00:00.374    22 713 kbps     00:00:00.000    111 621 bytes   965 218 bytes   00:00:03.500
STREAM DIAGNOSTICS:
File            PID             Type            Codec           Language                Seconds                 Bitrate                 Bytes           Packets
----            ---             ----            -----           --------                --------------          --------------          -------------   -----
00002.M2TS      4113 (0x1011)   0x1B            AVC                                     116,917                 21 446                  313 431 597     1 705 470
00002.M2TS      4352 (0x1100)   0x80            LPCM            rus (Russian)           116,917                 1 543                   22 557 600      140 400
QUICK SUMMARY:
Disc Title: Околофутбола_2013
Disc Size: 22 299 968 230 bytes
Protection: AACS
BD-Java: Yes
Playlist: 00002.MPLS
Size: 355 411 968 bytes
Length: 0:01:57.000
Total Bitrate: 24,30 Mbps
Video: MPEG-4 AVC Video / 21431 kbps / 1080p / 24 fps / 16:9 / High Profile 4.1
Audio: Russian / LPCM Audio / 2.0 / 48 kHz / 1536 kbps / 16-bit
********************
PLAYLIST: 01001.MPLS
********************
Total   Video
Title                                                           Codec   Length  Movie Size      Disc Size       Bitrate Bitrate Main Audio Track                          Secondary Audio Track
-----                                                           ------  ------- --------------  --------------  ------- ------- ------------------                        ---------------------
01001.MPLS                                                      AVC     0:01:57 355 411 968     22 299 968 230  24,30   21,43   LPCM 2.0 1536Kbps (48kHz/16-bit)
DISC INFO:
Disc Title:     Околофутбола_2013
Disc Size:      22 299 968 230 bytes
Protection:     AACS
BD-Java:        Yes
BDInfo:         0.5.8
PLAYLIST REPORT:
Name:                   01001.MPLS
Length:                 0:01:57.000 (h:m:s.ms)
Size:                   355 411 968 bytes
Total Bitrate:          24,30 Mbps
VIDEO:
Codec                   Bitrate             Description
-----                   -------             -----------
MPEG-4 AVC Video        21431 kbps          1080p / 24 fps / 16:9 / High Profile 4.1
AUDIO:
Codec                           Language        Bitrate         Description
-----                           --------        -------         -----------
LPCM Audio                      Russian         1536 kbps       2.0 / 48 kHz / 1536 kbps / 16-bit
FILES:
Name            Time In         Length          Size            Total Bitrate
----            -------         ------          ----            -------------
00002.M2TS      0:00:00.000     0:01:57.000     355 411 968     24 302
CHAPTERS:
Number          Time In         Length          Avg Video Rate  Max 1-Sec Rate  Max 1-Sec Time  Max 5-Sec Rate  Max 5-Sec Time  Max 10Sec Rate  Max 10Sec Time  Avg Frame Size  Max Frame Size  Max Frame Time
------          -------         ------          --------------  --------------  --------------  --------------  --------------  --------------  --------------  --------------  --------------  --------------
1               0:00:00.000     0:00:01.250     31 178 kbps     32 155 kbps     00:00:00.208    0 kbps          00:00:00.000    0 kbps          00:00:00.000    157 146 bytes   908 902 bytes   00:00:01.166
2               0:00:01.250     0:01:55.750     21 326 kbps     25 799 kbps     00:00:02.250    22 762 kbps     00:00:02.291    22 336 kbps     00:00:02.291    111 113 bytes   965 218 bytes   00:00:03.500
STREAM DIAGNOSTICS:
File            PID             Type            Codec           Language                Seconds                 Bitrate                 Bytes           Packets
----            ---             ----            -----           --------                --------------          --------------          -------------   -----
00002.M2TS      4113 (0x1011)   0x1B            AVC                                     116,917                 21 446                  313 431 597     1 705 470
00002.M2TS      4352 (0x1100)   0x80            LPCM            rus (Russian)           116,917                 1 543                   22 557 600      140 400
QUICK SUMMARY:
Disc Title: Околофутбола_2013
Disc Size: 22 299 968 230 bytes
Protection: AACS
BD-Java: Yes
Playlist: 01001.MPLS
Size: 355 411 968 bytes
Length: 0:01:57.000
Total Bitrate: 24,30 Mbps
Video: MPEG-4 AVC Video / 21431 kbps / 1080p / 24 fps / 16:9 / High Profile 4.1
Audio: Russian / LPCM Audio / 2.0 / 48 kHz / 1536 kbps / 16-bit
********************
PLAYLIST: 01000.MPLS
********************
Total   Video
Title                                                           Codec   Length  Movie Size      Disc Size       Bitrate Bitrate Main Audio Track                          Secondary Audio Track
-----                                                           ------  ------- --------------  --------------  ------- ------- ------------------                        ---------------------
01000.MPLS                                                      AVC     0:00:22 31 322 112      22 299 968 230  11,04   10,28   DD AC3 5.1 448Kbps
DISC INFO:
Disc Title:     Околофутбола_2013
Disc Size:      22 299 968 230 bytes
Protection:     AACS
BD-Java:        Yes
BDInfo:         0.5.8
PLAYLIST REPORT:
Name:                   01000.MPLS
Length:                 0:00:22.689 (h:m:s.ms)
Size:                   31 322 112 bytes
Total Bitrate:          11,04 Mbps
VIDEO:
Codec                   Bitrate             Description
-----                   -------             -----------
MPEG-4 AVC Video        10281 kbps          1080p / 23,976 fps / 16:9 / High Profile 4.1
AUDIO:
Codec                           Language        Bitrate         Description
-----                           --------        -------         -----------
Dolby Digital Audio             Russian         448 kbps        5.1 / 48 kHz / 448 kbps
FILES:
Name            Time In         Length          Size            Total Bitrate
----            -------         ------          ----            -------------
00000.M2TS      0:00:00.000     0:00:12.012     4 921 344       3 278
00001.M2TS      0:00:12.012     0:00:10.677     26 400 768      19 781
CHAPTERS:
Number          Time In         Length          Avg Video Rate  Max 1-Sec Rate  Max 1-Sec Time  Max 5-Sec Rate  Max 5-Sec Time  Max 10Sec Rate  Max 10Sec Time  Avg Frame Size  Max Frame Size  Max Frame Time
------          -------         ------          --------------  --------------  --------------  --------------  --------------  --------------  --------------  --------------  --------------  --------------
1               0:00:00.000     0:00:12.012     3 061 kbps      9 002 kbps      00:00:11.011    3 347 kbps      00:00:06.715    2 678 kbps      00:00:02.002    15 902 bytes    179 417 bytes   00:00:08.258
2               0:00:12.012     0:00:10.677     18 403 kbps     28 437 kbps     00:00:13.722    24 957 kbps     00:00:13.763    19 568 kbps     00:00:12.095    96 323 bytes    322 135 bytes   00:00:19.936
STREAM DIAGNOSTICS:
File            PID             Type            Codec           Language                Seconds                 Bitrate                 Bytes           Packets
----            ---             ----            -----           --------                --------------          --------------          -------------   -----
00000.M2TS      4113 (0x1011)   0x1B            AVC                                     11,845                  3 102                   4 593 114       25 099
00001.M2TS      4113 (0x1011)   0x1B            AVC                                     10,594                  18 550                  24 564 916      133 652
00001.M2TS      4352 (0x1100)   0x81            AC3             rus (Russian)           10,594                  452                     598 528         3 340
QUICK SUMMARY:
Disc Title: Околофутбола_2013
Disc Size: 22 299 968 230 bytes
Protection: AACS
BD-Java: Yes
Playlist: 01000.MPLS
Size: 31 322 112 bytes
Length: 0:00:22.689
Total Bitrate: 11,04 Mbps
Video: MPEG-4 AVC Video / 10281 kbps / 1080p / 23,976 fps / 16:9 / High Profile 4.1
Audio: Russian / Dolby Digital Audio / 5.1 / 48 kHz / 448 kbps

Скриншоты

[Профиль] [ЛС]
Показать сообщения:    

Текущее время: Сегодня 14:24

Часовой пояс: GMT



Вы не можете начинать темы
Вы не можете отвечать на сообщения
Вы не можете редактировать свои сообщения
Вы не можете удалять свои сообщения
Вы не можете голосовать в опросах
Вы не можете прикреплять файлы к сообщениям
Вы не можете скачивать файлы