Околофутбола (Антон Борматов) [2013, Россия, драма, криминал, BDRip 1080p]

 
Автор Сообщение

painkiller ®

Стаж: 2 года 3 месяца

Сообщений: 582



Награды: Нет

Торрент-статистика

Создавать темы 15-Авг-2014 01:09

[Цитировать]

Околофутбола«Нас не изменить!»- Страна: Россия | Фонд кино, Front Line Studio, Кинокомпания CTB
Жанр: драма, криминал
Год выпуска: 2013
Продолжительность: 01:36:49-Перевод: Не требуется
Cубтитры: отсутствуют-Режиссер: Антон Борматов
В ролях: Александр Ратников, Иван Фоминов, Григорий Иванец, Павел Ерлыков, Дарья Мингазетдинова, Юлия Маньковская, Евгений Березин, Никита Кукушкин, Сергей Шнырев, Максим Павлов-Описание: Фильм о самой закрытой части футбольных болельщиков — околофутбольных хулиганах. Они — самые агрессивные и жестокие представители мира футбольных фанатов. Они — элита околофутбола. Кем бы они ни были в обычной жизни — студентами или банкирами, музыкантами или автомеханиками, на самом деле все они — одна «фирма». Попасть в «фирму» очень сложно, но если ты в ней оказался — это на всю жизнь. И обратного пути нет.-IMDB | КиноПоиск | Сэмпл-Качество видео: BDRip 1080p | исх. Околофутбола (2013) Blu-ray 1080p AVC LPCM 5.1
Формат видео: MKV-Видео: 1920x1080 at 24.000 fps (True24p), x264@L4.1 crf 18, ~14 565 kbps avg
Аудио: 48 kHz/16-bit, DTS, 3/2 (L,C,R,l,r) + LFE ch, ~1509.00 kbps avg | Не требуется-Формат субтитров: отсутствуют
Навигация по главам: Присутствует-

MediaInfo

General
Unique ID : 195421422949733624596698308924892013014 (0x9304CC09B928F5C190D307CA537C61D6)
Complete name : C:\Okolofootboll.2013.1080p.BluRay.Rus.HDCLUB.mkv
Format : Matroska
Format version : Version 2
File size : 10.9 GiB
Duration : 1h 36mn
Overall bit rate : 16.1 Mbps
Movie name : Okolofootboll (2013) - Release for HDCLUB
Encoded date : UTC 2013-11-23 19:26:31
Writing application : mkvmerge v5.5.0 ('Healer') built on Apr 6 2012 21:43:24
Writing library : libebml v1.2.3 + libmatroska v1.3.0
Video
ID : 1
Format : AVC
Format/Info : Advanced Video Codec
Format profile : High@L4.1
Format settings, CABAC : Yes
Format settings, ReFrames : 4 frames
Codec ID : V_MPEG4/ISO/AVC
Duration : 1h 36mn
Bit rate : 14.2 Mbps
Width : 1 920 pixels
Height : 1 080 pixels
Display aspect ratio : 16:9
Frame rate mode : Constant
Frame rate : 24.000 fps
Color space : YUV
Chroma subsampling : 4:2:0
Bit depth : 8 bits
Scan type : Progressive
Bits/(Pixel*Frame) : 0.286
Stream size : 9.64 GiB (89%)
Title : Okolofootboll (2013) - Release for HDCLUB
Writing library : x264 core 138 r2358 9e941d1
Encoding settings : cabac=1 / ref=4 / deblock=1:-3:-3 / analyse=0x3:0x133 / me=tesa / subme=11 / psy=1 / psy_rd=1.05:0.00 / mixed_ref=1 / me_range=32 / chroma_me=1 / trellis=2 / 8x8dct=1 / cqm=0 / deadzone=21,11 / fast_pskip=0 / chroma_qp_offset=-2 / threads=6 / lookahead_threads=1 / sliced_threads=0 / nr=0 / decimate=1 / interlaced=0 / bluray_compat=0 / constrained_intra=0 / bframes=6 / b_pyramid=2 / b_adapt=2 / b_bias=0 / direct=1 / weightb=1 / open_gop=0 / weightp=2 / keyint=240 / keyint_min=24 / scenecut=40 / intra_refresh=0 / rc_lookahead=60 / rc=crf / mbtree=0 / crf=18.0 / qcomp=0.60 / qpmin=0 / qpmax=69 / qpstep=4 / vbv_maxrate=62500 / vbv_bufsize=78125 / crf_max=0.0 / nal_hrd=none / ip_ratio=1.30 / pb_ratio=1.15 / aq=2:1.00
Language : Russian
Default : Yes
Forced : No
Audio
ID : 2
Format : DTS
Format/Info : Digital Theater Systems
Mode : 16
Format settings, Endianness : Big
Codec ID : A_DTS
Duration : 1h 36mn
Bit rate mode : Constant
Bit rate : 1 509 Kbps
Channel count : 6 channels
Channel positions : Front: L C R, Side: L R, LFE
Sampling rate : 48.0 KHz
Bit depth : 16 bits
Compression mode : Lossy
Stream size : 1.02 GiB (9%)
Language : Russian
Default : Yes
Forced : No
Menu
00:00:00.000 : en:00:00:00.000
00:10:58.292 : en:00:10:58.292
00:23:09.250 : en:00:23:09.250
00:36:29.958 : en:00:36:29.958
00:48:11.250 : en:00:48:11.250
01:01:39.458 : en:01:01:39.458
01:13:50.000 : en:01:13:50.000
01:23:49.667 : en:01:23:49.667

x264 log

raw [info]: 1920x1080p 1:1 @ 24/1 fps (cfr)
x264 [info]: using SAR=1/1
x264 [info]: using cpu capabilities: MMX2 SSE2Fast SSSE3 SSE4.2 AVX
x264 [info]: profile High, level 4.1
x264 [info]: frame I:1282 Avg QP:15.94 size:191412
x264 [info]: frame P:39955 Avg QP:16.88 size: 97015
x264 [info]: frame B:98184 Avg QP:18.35 size: 65745
x264 [info]: consecutive B-frames: 5.9% 7.5% 17.6% 25.4% 15.7% 25.7% 2.2%
x264 [info]: mb I I16..4: 18.4% 62.2% 19.4%
x264 [info]: mb P I16..4: 12.1% 33.4% 5.8% P16..4: 18.7% 16.1% 4.7% 0.7% 0.1% skip: 8.4%
x264 [info]: mb B I16..4: 7.6% 14.3% 2.2% B16..8: 28.1% 13.3% 2.3% direct:10.7% skip:21.7% L0:41.9% L1:42.1% BI:16.0%
x264 [info]: 8x8 transform intra:62.1% inter:62.4%
x264 [info]: coded y,uvDC,uvAC intra: 71.7% 74.3% 48.3% inter: 34.1% 41.6% 10.5%
x264 [info]: i16 v,h,dc,p: 13% 12% 27% 49%
x264 [info]: i8 v,h,dc,ddl,ddr,vr,hd,vl,hu: 15% 11% 21% 7% 8% 9% 9% 9% 11%
x264 [info]: i4 v,h,dc,ddl,ddr,vr,hd,vl,hu: 19% 11% 33% 5% 7% 6% 6% 5% 7%
x264 [info]: i8c dc,h,v,p: 33% 29% 21% 17%
x264 [info]: Weighted P-Frames: Y:3.2% UV:2.6%
x264 [info]: ref P L0: 57.9% 10.5% 20.9% 9.1% 1.7% 0.0%
x264 [info]: ref B L0: 89.0% 9.0% 2.0%
x264 [info]: ref B L1: 94.5% 5.5%
x264 [info]: kb/s:14565.43
encoded 139421 frames, 1.38 fps, 14565.43 kb/s

Дополнительно

Сохранены оригинальные чаптеры как на Blu-Ray
by Electr0man

Скриншоты

[Профиль] [ЛС]
Показать сообщения:    

Текущее время: Сегодня 12:49

Часовой пояс: GMT



Вы не можете начинать темы
Вы не можете отвечать на сообщения
Вы не можете редактировать свои сообщения
Вы не можете удалять свои сообщения
Вы не можете голосовать в опросах
Вы не можете прикреплять файлы к сообщениям
Вы не можете скачивать файлы