Окно спальни / The Bedroom Window (1987) WEB-DL 720p | P2

 
Автор Сообщение

Russian Mafia ®

Пол:

Стаж: 1 год 8 месяцев

Сообщений: 4257



Награды: 10 (Подробнее)

Mega Seeder 1 (Количество: 1) Mega Seeder 2 (Количество: 1) Top Releaser 4 (Количество: 1)
Торрент-статистика

Создавать темы 24-Окт-2015 13:46

[Цитировать]

Информация о фильме
Название: Окно спальни
Оригинальное название: The Bedroom Window
Год выхода: 1987
Жанр: триллер, криминал, детектив
Режиссер: Кёртис Хэнсон
В ролях: Стив Гуттенберг, Элизабет МакГоверн, Изабель Юппер, Пол Шенар, Карл Ламбли, Уоллес Шоун, Фредерик Коффин, Брэд Гринквист, Роберт Шенккан, Мори Чайкин
О фильме:
Очаровательная любовница Терри Ламберта — жена его босса Сильвия. Однажды ночью она выглядывает из окна спальни Терри и становится свидетельницей нападения на молодую женщину. Чтобы не скомпрометировать Сильвию Терри соглашается выступить вместо нее свидетелем, но неожиданно становится в глазах полиции главным подозреваемым.
Его обвиняют в серии жестоких убийств. Для Терри остается единственный путь к спасению — предпринять собственное расследование в попытке найти настоящего убийцу. А единственный человек, который готов помочь Терри — Дениз, та самая жертва нападения, которое произошло под окном его спальни…

Страна: США
Студия: De Laurentiis Entertainment Group (DEG)
Продолжительность: 01:53:28
Перевод: Профессиональный (двухголосый, закадровый) CP Digital + Профессиональный (двухголосый, закадровый) НТВ + Профессиональный (двухголосый, закадровый) Екатеринбург Арт
Файл
Формат: Matroska
Видео: 1280x536 at 23.976 fps, MPEG-4 AVC ~4000 kbps avg
Аудио#1: Russian: 48 kHz, AC3, 3/2 (L,C,R,l,r) + LFE ch, ~448.00 kbps avg |Двухголосый закадровый, CP Digital|
Аудио#2: Russian: 48 kHz, AC3, 2/0 (L,R) ch, ~192.00 kbps avg |Двухголосый закадровый, НТВ|
Аудио#3: Russian: 48 kHz, AC3, 2/0 (L,R) ch, ~192.00 kbps avg |Двухголосый закадровый, Екатеринбург Арт|
Аудио#4: English: 48 kHz, AC3, 3/2 (L,C,R,l,r) + LFE ch, ~448.00 kbps avg |DVD|
Аудио#5: English: 48 kHz, AAC, 2/0 (L,R) ch, ~160.00 kbps avg kbps avg |WEB-DL|
Субтитры: Russian, English

Доп. информация

За звуковую дорожку "CP Digital" большое спасибо test18.
За звуковую дорожку "Екатеринбург Арт" большое спасибо Fikaloid.
За звуковую дорожку НТВ большое спасибо Krasnovv.
Синхронизация звука - vedigo.

MI

Общее
Уникальный идентификатор : 215867579808138553495577588075702705429 (0xA2669566A523A3129B8CE18BCABEDD15)
Полное имя : The.Bedroom.Window.1987.WEB-DL.720p_by_vedigo.mkv
Формат : Matroska
Версия формата : Version 4 / Version 2
Размер файла : 4,35 Гбайт
Продолжительность : 1 ч. 53 м.
Общий поток : 5493 Кбит/сек
Название фильма : The.Bedroom.Window.1987.WEB-DL.720p_by_vedigo
Дата кодирования : UTC 2015-10-23 11:39:22
Программа кодирования : mkvmerge v8.5.1 ('Where you lead I will follow') 64bit
Библиотека кодирования : libebml v1.3.3 + libmatroska v1.4.4
Видео
Идентификатор : 1
Формат : AVC
Формат/Информация : Advanced Video Codec
Профиль формата : Main@L3.1
Параметр CABAC формата : Нет
Параметр ReFrames формата : 2 кадра
Идентификатор кодека : V_MPEG4/ISO/AVC
Продолжительность : 1 ч. 53 м.
Ширина : 1280 пикселей
Высота : 536 пикселей
Соотношение сторон : 2,40:1
Режим частоты кадров : Постоянный
Частота кадров : 23,976 кадра/сек
Цветовое пространство : YUV
Субдискретизация насыщенности : 4:2:0
Битовая глубина : 8 бит
Тип развёртки : Прогрессивная
Заголовок : The.Bedroom.Window.1987.WEB-DL.720p_by_vedigo
Default : Да
Forced : Нет
Цветовой диапазон : Limited
Основные цвета : BT.709
Характеристики трансфера : BT.709
Коэффициенты матрицы : BT.709
Аудио #1
Идентификатор : 2
Формат : AC-3
Формат/Информация : Audio Coding 3
Расширение режима : CM (complete main)
Параметр Endianness формата : Big
Идентификатор кодека : A_AC3
Продолжительность : 1 ч. 53 м.
Вид битрейта : Постоянный
Битрейт : 448 Кбит/сек
Каналы : 6 каналов
Расположение каналов : Front: L C R, Side: L R, LFE
Частота : 48,0 КГц
Метод сжатия : С потерями
Размер потока : 364 Мбайт (8%)
Заголовок : MVO @ CP Digital
Язык : Russian
Default : Да
Forced : Нет
Аудио #2
Идентификатор : 3
Формат : AC-3
Формат/Информация : Audio Coding 3
Расширение режима : CM (complete main)
Параметр Endianness формата : Big
Идентификатор кодека : A_AC3
Продолжительность : 1 ч. 53 м.
Вид битрейта : Постоянный
Битрейт : 192 Кбит/сек
Каналы : 2 канала
Расположение каналов : Front: L R
Частота : 48,0 КГц
Метод сжатия : С потерями
Размер потока : 156 Мбайт (3%)
Заголовок : DVO @ НТВ
Язык : Russian
Default : Нет
Forced : Нет
Аудио #3
Идентификатор : 4
Формат : AC-3
Формат/Информация : Audio Coding 3
Расширение режима : CM (complete main)
Параметр Endianness формата : Big
Идентификатор кодека : A_AC3
Продолжительность : 1 ч. 53 м.
Вид битрейта : Постоянный
Битрейт : 192 Кбит/сек
Каналы : 2 канала
Расположение каналов : Front: L R
Частота : 48,0 КГц
Метод сжатия : С потерями
Размер потока : 156 Мбайт (3%)
Заголовок : DVO @ Екатеринбург Арт
Язык : Russian
Default : Нет
Forced : Нет
Аудио #4
Идентификатор : 5
Формат : AC-3
Формат/Информация : Audio Coding 3
Расширение режима : CM (complete main)
Параметр Endianness формата : Big
Идентификатор кодека : A_AC3
Продолжительность : 1 ч. 53 м.
Вид битрейта : Постоянный
Битрейт : 448 Кбит/сек
Каналы : 6 каналов
Расположение каналов : Front: L C R, Side: L R, LFE
Частота : 48,0 КГц
Метод сжатия : С потерями
Размер потока : 364 Мбайт (8%)
Заголовок : original @ DVD
Язык : English
Default : Нет
Forced : Нет
Аудио #5
Идентификатор : 6
Формат : AAC
Формат/Информация : Advanced Audio Codec
Профиль формата : LC
Идентификатор кодека : A_AAC
Продолжительность : 1 ч. 53 м.
Каналы : 2 канала
Расположение каналов : Front: L R
Частота : 48,0 КГц
Метод сжатия : С потерями
Заголовок : original @ WEB-DL
Язык : English
Default : Нет
Forced : Нет
Текст #1
Идентификатор : 7
Формат : UTF-8
Идентификатор кодека : S_TEXT/UTF8
Идентификатор кодека/Информация : UTF-8 Plain Text
Заголовок : subtitle rus
Язык : Russian
Default : Нет
Forced : Нет
Текст #2
Идентификатор : 8
Формат : UTF-8
Идентификатор кодека : S_TEXT/UTF8
Идентификатор кодека/Информация : UTF-8 Plain Text
Заголовок : subtitle eng
Язык : English
Default : Нет
Forced : Нет
Меню
00:00:00.000 : en:Main Title/Assault
00:09:57.000 : en:False Witness
00:21:03.000 : en:The Line Up
00:28:56.000 : en:Following a Hunch
00:39:42.000 : en:Star Witness
00:45:26.000 : en:The Trial
00:55:51.000 : en:Suspicion
01:07:03.000 : en:Becoming a Suspect
01:18:21.000 : en:Hiding Out
01:28:20.000 : en:The Plan
01:43:22.000 : en:Plan Gone Awry
01:50:58.000 : en:End Credits

Скриншоты

[Профиль] [ЛС]
Кто просматривает тему:

Показать сообщения:    

Текущее время: Сегодня 05:17

Часовой пояс: GMT



Вы не можете начинать темы
Вы не можете отвечать на сообщения
Вы не можете редактировать свои сообщения
Вы не можете удалять свои сообщения
Вы не можете голосовать в опросах
Вы не можете прикреплять файлы к сообщениям
Вы не можете скачивать файлы