(Rock)Океан Ельзи - Найкраще (2014) 2CD [FLAC(image+cue), Lossless]

 
Автор Сообщение

sergej644 ®

Пол:

Стаж: 4 года 11 месяцев

Сообщений: 6041

Откуда: Soviet Union



Награды: Нет

Торрент-статистика

Создавать темы 15-Окт-2014 14:33

[Цитировать]

-Океан Ельзи - Найкраще (2014) 2CD-Год: 2014
Жанр: Rock
Лейбл: Квадро Диск Україна
Кодек: FLAC
Тип рипа: image+cue
Битрейт: Lossless
Продолжительность: 02:15:34

Треклист:

CD 1

01. Там Де Нас Нема
02. Ластiвка З Твого Мiста
03. Той День
04. Мало Менi
05. Сосни
06. Вiдпусти
07. 911
08. Я До Тебе
09. Друг
10. Ти Собi Сама
11. Квiтка
12. Вставай
13. Isn’t It Сон
14. Коко Шанель
15. Кiшка
16. Дiвчина (з iншого життя)
17. Для Тебе

Продолжительность - 01:06:58

Отчёт ЕАС:

Exact Audio Copy V1.0 beta 3 from 29. August 2011
EAC extraction logfile from 11. July 2014, 19:12
Океан Ельзи / Найкраще
Used drive  : ATAPI   iHAS124   B   Adapter: 4  ID: 0
Read mode               : Secure
Utilize accurate stream : Yes
Defeat audio cache      : Yes
Make use of C2 pointers : No
Read offset correction                      : 6
Overread into Lead-In and Lead-Out          : No
Fill up missing offset samples with silence : Yes
Delete leading and trailing silent blocks   : No
Null samples used in CRC calculations       : Yes
Used interface                              : Native Win32 interface for Win NT & 2000
Used output format : Internal WAV Routines
Sample format      : 44.100 Hz; 16 Bit; Stereo
TOC of the extracted CD
     Track |   Start  |  Length  | Start sector | End sector
    ---------------------------------------------------------
        1  |  0:00.00 |  3:35.01 |         0    |    16125
        2  |  3:35.01 |  3:09.12 |     16126    |    30312
        3  |  6:44.13 |  4:00.32 |     30313    |    48344
        4  | 10:44.45 |  5:08.30 |     48345    |    71474
        5  | 15:53.00 |  4:33.54 |     71475    |    92003
        6  | 20:26.54 |  3:54.34 |     92004    |   109587
        7  | 24:21.13 |  3:29.42 |    109588    |   125304
        8  | 27:50.55 |  4:51.09 |    125305    |   147138
        9  | 32:41.64 |  4:06.07 |    147139    |   165595
       10  | 36:47.71 |  3:51.27 |    165596    |   182947
       11  | 40:39.23 |  4:17.01 |    182948    |   202223
       12  | 44:56.24 |  2:56.48 |    202224    |   215471
       13  | 47:52.72 |  3:42.03 |    215472    |   232124
       14  | 51:35.00 |  3:57.51 |    232125    |   249950
       15  | 55:32.51 |  3:53.05 |    249951    |   267430
       16  | 59:25.56 |  3:40.54 |    267431    |   283984
       17  | 63:06.35 |  3:51.55 |    283985    |   301364
Range status and errors
Selected range
     Filename I:\Українська музика\Океан Ельзи - Найкраще (2014)\Частина1\Океан Ельзи - Найкраще (2014) CD1.wav
     Peak level 98.6 %
     Extraction speed 2.0 X
     Range quality 99.9 %
     Test CRC 98B39260
     Copy CRC 98B39260
     Copy OK
No errors occurred
AccurateRip summary
Track  1  not present in database
Track  2  not present in database
Track  3  not present in database
Track  4  not present in database
Track  5  not present in database
Track  6  not present in database
Track  7  not present in database
Track  8  not present in database
Track  9  not present in database
Track 10  not present in database
Track 11  not present in database
Track 12  not present in database
Track 13  not present in database
Track 14  not present in database
Track 15  not present in database
Track 16  not present in database
Track 17  not present in database
None of the tracks are present in the AccurateRip database
End of status report
---- CUETools DB Plugin V2.1.3
[CTDB TOCID: pg4UNb.HvCswG202dwRfHQhYQsI-] disk not present in database, Submit result: pg4UNb.HvCswG202dwRfHQhYQsI- has been uploaded
==== Log checksum F14CE2C7F7099F51D20435239135021C7A0E25E1D1FF97600AF438B5F7694F6E ====

Отчёт auCDtectTaskManager:

-----------------------
DON'T MODIFY THIS FILE
-----------------------
PERFORMER: auCDtect Task Manager, ver. 1.5.1RC4 build 1.5.1.5
Copyright (c) 2008-2010 y-soft. All rights reserved
http://y-soft.org
ANALYZER: auCDtect: CD records authenticity detector, version 0.8.2
Copyright (c) 2004 Oleg Berngardt. All rights reserved.
Copyright (c) 2004 Alexander Djourik. All rights reserved.
FILE: Океан Ельзи - Найкраще (2014) CD1.flac
  Size: 484037563 Hash: CD0DDF86171D65DB8A87941D12E1B7BE Accuracy: -m0
  Conclusion: CDDA 100%
  Signature: 9F9D30BA3C4B7DEA4A1630FB65FA9949CAECAAAC

Содержимое индексной карты:

REM GENRE Rock
REM DATE 2014
REM DISCID 0D0FB211
REM COMMENT "ExactAudioCopy v1.0b3"
PERFORMER "Океан Ельзи"
TITLE "Найкраще CD1"
FILE "Океан Ельзи - Найкраще (2014) CD1.flac" WAVE
  TRACK 01 AUDIO
    TITLE "Там Де Нас Нема"
    PERFORMER "Океан Ельзи"
    INDEX 01 00:00:00
  TRACK 02 AUDIO
    TITLE "Ластiвка З Твого Мiста"
    PERFORMER "Океан Ельзи"
    INDEX 00 03:33:01
    INDEX 01 03:35:01
  TRACK 03 AUDIO
    TITLE "Той День"
    PERFORMER "Океан Ельзи"
    INDEX 00 06:42:13
    INDEX 01 06:44:13
  TRACK 04 AUDIO
    TITLE "Мало Менi"
    PERFORMER "Океан Ельзи"
    INDEX 00 10:42:45
    INDEX 01 10:44:45
  TRACK 05 AUDIO
    TITLE "Сосни"
    PERFORMER "Океан Ельзи"
    INDEX 00 15:51:00
    INDEX 01 15:53:00
  TRACK 06 AUDIO
    TITLE "Вiдпусти"
    PERFORMER "Океан Ельзи"
    INDEX 00 20:24:54
    INDEX 01 20:26:54
  TRACK 07 AUDIO
    TITLE "911"
    PERFORMER "Океан Ельзи"
    INDEX 00 24:19:13
    INDEX 01 24:21:13
  TRACK 08 AUDIO
    TITLE "Я До Тебе"
    PERFORMER "Океан Ельзи"
    INDEX 00 27:48:55
    INDEX 01 27:50:55
  TRACK 09 AUDIO
    TITLE "Друг"
    PERFORMER "Океан Ельзи"
    INDEX 00 32:39:64
    INDEX 01 32:41:64
  TRACK 10 AUDIO
    TITLE "Ти Собi Сама"
    PERFORMER "Океан Ельзи"
    INDEX 00 36:45:71
    INDEX 01 36:47:71
  TRACK 11 AUDIO
    TITLE "Квiтка"
    PERFORMER "Океан Ельзи"
    INDEX 00 40:37:23
    INDEX 01 40:39:23
  TRACK 12 AUDIO
    TITLE "Вставай"
    PERFORMER "Океан Ельзи"
    INDEX 00 44:54:24
    INDEX 01 44:56:24
  TRACK 13 AUDIO
    TITLE "Isn’t It Сон"
    PERFORMER "Океан Ельзи"
    INDEX 00 47:50:72
    INDEX 01 47:52:72
  TRACK 14 AUDIO
    TITLE "Коко Шанель"
    PERFORMER "Океан Ельзи"
    INDEX 00 51:33:00
    INDEX 01 51:35:00
  TRACK 15 AUDIO
    TITLE " Кiшка"
    PERFORMER "Океан Ельзи"
    INDEX 00 55:30:51
    INDEX 01 55:32:51
  TRACK 16 AUDIO
    TITLE "Дiвчина (з iншого життя)"
    PERFORMER "Океан Ельзи"
    INDEX 00 59:23:56
    INDEX 01 59:25:56
  TRACK 17 AUDIO
    TITLE "Для Тебе"
    PERFORMER "Океан Ельзи"
    INDEX 00 63:04:35
    INDEX 01 63:06:35

CD 2

Треклист:
01. Майже весна 4:14
02. Холодно 4:34
03. Вище неба 4:01
04. Без бою 4:21
05. Вiдчуваю 4:18
06. Не питай 2:39
07. Зеленi очi 4:10
08. Я їду додому 2:01
09. Все буде добре 3:12
10. Я так хочу 4:43
11. Бiльше для Нас 3:32
12. Dolce Vita 5:22
13. Rendez-Vous 4:15
14. Стрiляй 4:53
15. Обiйми 3:47
16. Джульєта 4:42
17. На Небi 3:44

Продолжительность - 01:08:36

Отчёт ЕАС:

Exact Audio Copy V1.0 beta 3 from 29. August 2011
EAC extraction logfile from 11. July 2014, 20:51
Океан Ельзи / Найкраще
Used drive  : ATAPI   iHAS124   B   Adapter: 4  ID: 0
Read mode               : Secure
Utilize accurate stream : Yes
Defeat audio cache      : Yes
Make use of C2 pointers : No
Read offset correction                      : 6
Overread into Lead-In and Lead-Out          : No
Fill up missing offset samples with silence : Yes
Delete leading and trailing silent blocks   : No
Null samples used in CRC calculations       : Yes
Used interface                              : Native Win32 interface for Win NT & 2000
Used output format : Internal WAV Routines
Sample format      : 44.100 Hz; 16 Bit; Stereo
TOC of the extracted CD
     Track |   Start  |  Length  | Start sector | End sector
    ---------------------------------------------------------
        1  |  0:00.00 |  4:14.43 |         0    |    19092
        2  |  4:14.43 |  4:34.12 |     19093    |    39654
        3  |  8:48.55 |  4:01.19 |     39655    |    57748
        4  | 12:49.74 |  4:21.71 |     57749    |    77394
        5  | 17:11.70 |  4:18.08 |     77395    |    96752
        6  | 21:30.03 |  2:39.32 |     96753    |   108709
        7  | 24:09.35 |  4:10.20 |    108710    |   127479
        8  | 28:19.55 |  2:01.24 |    127480    |   136578
        9  | 30:21.04 |  3:12.59 |    136579    |   151037
       10  | 33:33.63 |  4:43.53 |    151038    |   172315
       11  | 38:17.41 |  3:32.07 |    172316    |   188222
       12  | 41:49.48 |  5:22.55 |    188223    |   212427
       13  | 47:12.28 |  4:15.38 |    212428    |   231590
       14  | 51:27.66 |  4:53.37 |    231591    |   253602
       15  | 56:21.28 |  3:47.69 |    253603    |   270696
       16  | 60:09.22 |  4:42.03 |    270697    |   291849
       17  | 64:51.25 |  3:44.50 |    291850    |   308699
Range status and errors
Selected range
     Filename I:\Українська музика\Океан Ельзи - Найкраще (2014)\Частина2\Океан Ельзи - Найкраще (2014) CD2.wav
     Peak level 100.0 %
     Extraction speed 2.0 X
     Range quality 100.0 %
     Test CRC 45CAE56F
     Copy CRC 45CAE56F
     Copy OK
No errors occurred
AccurateRip summary
Track  1  not present in database
Track  2  not present in database
Track  3  not present in database
Track  4  not present in database
Track  5  not present in database
Track  6  not present in database
Track  7  not present in database
Track  8  not present in database
Track  9  not present in database
Track 10  not present in database
Track 11  not present in database
Track 12  not present in database
Track 13  not present in database
Track 14  not present in database
Track 15  not present in database
Track 16  not present in database
Track 17  not present in database
None of the tracks are present in the AccurateRip database
End of status report
---- CUETools DB Plugin V2.1.3
[CTDB TOCID: jD7YeiFJ1xUsLRRnTIaORtRAlgA-] disk not present in database, Submit result: jD7YeiFJ1xUsLRRnTIaORtRAlgA- has been uploaded
==== Log checksum 745DC13461FABFC0E0DAA42FEEF79D576D25D35FAA077928070A96721F769E4B ====

Отчёт auCDtectTaskManager:

-----------------------
DON'T MODIFY THIS FILE
-----------------------
PERFORMER: auCDtect Task Manager, ver. 1.5.1RC4 build 1.5.1.5
Copyright (c) 2008-2010 y-soft. All rights reserved
http://y-soft.org
ANALYZER: auCDtect: CD records authenticity detector, version 0.8.2
Copyright (c) 2004 Oleg Berngardt. All rights reserved.
Copyright (c) 2004 Alexander Djourik. All rights reserved.
FILE: Океан Ельзи - Найкраще (2014) CD2.flac
  Size: 471475436 Hash: 958D11B279AC6696E641963E4D0CA5FD Accuracy: -m0
  Conclusion: CDDA 100%
  Signature: 9F3E105FF128F9240AF2269257C5EAF9A9922C05

Содержимое индексной карты:

REM GENRE Rock
REM DATE 2014
REM DISCID DC101411
REM COMMENT "ExactAudioCopy v1.0b3"
PERFORMER "Океан Ельзи"
TITLE "Найкраще CD2"
FILE "Океан Ельзи - Найкраще (2014) CD2.flac" WAVE
  TRACK 01 AUDIO
    TITLE "Майже весна"
    PERFORMER "Океан Ельзи"
    INDEX 01 00:00:00
  TRACK 02 AUDIO
    TITLE "Холодно"
    PERFORMER "Океан Ельзи"
    INDEX 00 04:12:43
    INDEX 01 04:14:43
  TRACK 03 AUDIO
    TITLE "Вище неба"
    PERFORMER "Океан Ельзи"
    INDEX 00 08:46:55
    INDEX 01 08:48:55
  TRACK 04 AUDIO
    TITLE "Без бою "
    PERFORMER "Океан Ельзи"
    INDEX 00 12:47:74
    INDEX 01 12:49:74
  TRACK 05 AUDIO
    TITLE "Вiдчуваю"
    PERFORMER "Океан Ельзи"
    INDEX 00 17:09:70
    INDEX 01 17:11:70
  TRACK 06 AUDIO
    TITLE "Не питай"
    PERFORMER "Океан Ельзи"
    INDEX 00 21:28:03
    INDEX 01 21:30:03
  TRACK 07 AUDIO
    TITLE "Зеленi очi"
    PERFORMER "Океан Ельзи"
    INDEX 00 24:07:35
    INDEX 01 24:09:35
  TRACK 08 AUDIO
    TITLE "Я їду додому"
    PERFORMER "Океан Ельзи"
    INDEX 00 28:17:55
    INDEX 01 28:19:55
  TRACK 09 AUDIO
    TITLE "Все буде добре"
    PERFORMER "Океан Ельзи"
    INDEX 00 30:19:04
    INDEX 01 30:21:04
  TRACK 10 AUDIO
    TITLE "Я так хочу"
    PERFORMER "Океан Ельзи"
    INDEX 00 33:31:63
    INDEX 01 33:33:63
  TRACK 11 AUDIO
    TITLE "Бiльше для Нас"
    PERFORMER "Океан Ельзи"
    INDEX 00 38:15:41
    INDEX 01 38:17:41
  TRACK 12 AUDIO
    TITLE "Dolce Vita"
    PERFORMER "Океан Ельзи"
    INDEX 00 41:47:48
    INDEX 01 41:49:48
  TRACK 13 AUDIO
    TITLE "Rendez-Vous"
    PERFORMER "Океан Ельзи"
    INDEX 00 47:10:28
    INDEX 01 47:12:28
  TRACK 14 AUDIO
    TITLE "Стрiляй"
    PERFORMER "Океан Ельзи"
    INDEX 00 51:25:66
    INDEX 01 51:27:66
  TRACK 15 AUDIO
    TITLE "Обiйми"
    PERFORMER "Океан Ельзи"
    INDEX 00 56:19:28
    INDEX 01 56:21:28
  TRACK 16 AUDIO
    TITLE "Джульєта"
    PERFORMER "Океан Ельзи"
    INDEX 00 60:07:22
    INDEX 01 60:09:22
  TRACK 17 AUDIO
    TITLE "На Небi"
    PERFORMER "Океан Ельзи"
    INDEX 00 64:49:25
    INDEX 01 64:51:25
--
[Профиль] [ЛС]
Показать сообщения:    

Текущее время: Сегодня 03:13

Часовой пояс: GMT



Вы не можете начинать темы
Вы не можете отвечать на сообщения
Вы не можете редактировать свои сообщения
Вы не можете удалять свои сообщения
Вы не можете голосовать в опросах
Вы не можете прикреплять файлы к сообщениям
Вы не можете скачивать файлы