(Rock)Океан Ельзи (О.Е.)(Святослав Вакарчук) - Дискография - 19 релизов 1998-2014, [FLAC (image+.cue), lossless]

 
Автор Сообщение

sergej644 ®

Пол:

Стаж: 4 года 11 месяцев

Сообщений: 6038

Откуда: Soviet Union



Награды: Нет

Торрент-статистика

Создавать темы 01-Окт-2014 21:45

[Цитировать]

Океан Ельзи (О.Е.) | Святослав Вакарчук Дискография 1998-2014- -Жанр: Rock
Носитель: CD
Страна-производитель диска: Україна
Год издания: 1998-2014
Издатель (лейбл): Nova Records, Lavina music, Moon records, Susy Records, Квадро Диск Україна
Страна: Україна-Аудиокодек: FLAC (*.flac)
Тип рипа: image+.cue
Битрейт аудио: lossless
Продолжительность: 15:53:26
Источник (релизер): Pretoryan*
Наличие сканов в содержимом раздачи: да **-Об исполнителе (группе):
Океан Ельзи (або скорочено — О. Е.) — культовий український рок-гурт, створений 12 жовтня 1994 року у Львові. Лідером та вокалістом гурту є Святослав Вакарчук.
Публіка та критики неодноразово визнавали «Океан Ельзи» найкращим рок-гуртом та найкращим live-гуртом СНД та Східної Європи. Усього на території України та Росії продано понад мільйон дисків ОЕ.
Состав:
Святослав Вакарчук — вокал (1994 — до сьогодні)
Денис Глінін — ударні (1994 — до сьогодні)
Денис Дудко — бас-гітара (2004 — до сьогодні)
Мілош Єліч — клавішні (2004 — до сьогодні)
Владімір Опсеніца — гітара (сесійний музикант, 2013)-Дискография:
-Студійні альбоми:

1998 - Там, де нас нема

01. Новий день [00:02:50]
02. Там, де нас нема [00:03:31]
03. Голос твiй [00:03:57]
04. Позич менi сонце [00:04:08]
05. Тадж-Махал [00:03:24]
06. Сумна мелодiя [00:04:20]
07. Поїзд 'чужа любов' [00:04:01]
08. Йду на дно [00:03:37]
09. Вiсiм [00:03:31]
10. Ластiвка з мого мiста [00:03:05]
11. Ти забула давно [00:04:41]
12. Long Time Ago [00:03:49]
13. Колиска вiтру (бонус-трек) [00:03:08]
14. Годi вже (бонус-трек) [00:04:31]
15. Там, де нас нема (Danilkin Де ви є remix) (бонус-трек) [00:04:07]
Продолжительность: 00:56:46

Лог создания рипа

Exact Audio Copy V1.0 beta 3 from 29. August 2011
EAC extraction logfile from 13. July 2014, 12:32
Океан Ельзи / Там, де нас нема
Used drive : ATAPI iHAS124 B Adapter: 4 ID: 0
Read mode : Secure
Utilize accurate stream : Yes
Defeat audio cache : Yes
Make use of C2 pointers : No
Read offset correction : 6
Overread into Lead-In and Lead-Out : No
Fill up missing offset samples with silence : Yes
Delete leading and trailing silent blocks : No
Null samples used in CRC calculations : Yes
Used interface : Native Win32 interface for Win NT & 2000
Used output format : Internal WAV Routines
Sample format : 44.100 Hz; 16 Bit; Stereo
TOC of the extracted CD
Track | Start | Length | Start sector | End sector
---------------------------------------------------------
1 | 0:00.00 | 2:52.39 | 0 | 12938
2 | 2:52.39 | 3:33.01 | 12939 | 28914
3 | 6:25.40 | 3:59.05 | 28915 | 46844
4 | 10:24.45 | 4:10.62 | 46845 | 65656
5 | 14:35.32 | 3:26.36 | 65657 | 81142
6 | 18:01.68 | 4:22.00 | 81143 | 100792
7 | 22:23.68 | 4:03.20 | 100793 | 119037
8 | 26:27.13 | 3:39.00 | 119038 | 135462
9 | 30:06.13 | 3:33.16 | 135463 | 151453
10 | 33:39.29 | 3:07.12 | 151454 | 165490
11 | 36:46.41 | 4:43.03 | 165491 | 186718
12 | 41:29.44 | 3:51.41 | 186719 | 204084
13 | 45:21.10 | 3:09.74 | 204085 | 218333
14 | 48:31.09 | 4:33.21 | 218334 | 238829
15 | 53:04.30 | 4:09.25 | 238830 | 257529
Range status and errors
Selected range
Filename I:\Українська музика\Океан Ельзи - Дискографія 1998-2014 - lossless\Альбоми\1998 - Там, де нас нема (2002, Lavina Music)\Океан Ельзи - Там, де нас нема - 1998.2002 (Lavina Music).wav
Peak level 98.9 %
Extraction speed 5.8 X
Range quality 100.0 %
Test CRC 2B9F7964
Copy CRC 2B9F7964
Copy OK
No errors occurred
AccurateRip summary
Track 1 cannot be verified as accurate (confidence 3) [9ACD8444], AccurateRip returned [318826C9] (AR v2)
Track 2 cannot be verified as accurate (confidence 3) [68883887], AccurateRip returned [5B9DBF3B] (AR v2)
Track 3 cannot be verified as accurate (confidence 3) [09024F48], AccurateRip returned [E2772509] (AR v2)
Track 4 cannot be verified as accurate (confidence 3) [B7D0873B], AccurateRip returned [128C1242] (AR v2)
Track 5 cannot be verified as accurate (confidence 3) [AF4582F1], AccurateRip returned [7343C988] (AR v2)
Track 6 cannot be verified as accurate (confidence 3) [4D19103A], AccurateRip returned [2CE8CF84] (AR v2)
Track 7 cannot be verified as accurate (confidence 3) [8E514911], AccurateRip returned [5F667790] (AR v2)
Track 8 cannot be verified as accurate (confidence 3) [D6A35823], AccurateRip returned [883BA03B] (AR v2)
Track 9 cannot be verified as accurate (confidence 3) [10A5FF12], AccurateRip returned [719CCDC6] (AR v2)
Track 10 cannot be verified as accurate (confidence 3) [1C123660], AccurateRip returned [3005708C] (AR v2)
Track 11 cannot be verified as accurate (confidence 3) [862E6157], AccurateRip returned [25DE6D3A] (AR v2)
Track 12 cannot be verified as accurate (confidence 3) [2986143A], AccurateRip returned [320A0756] (AR v2)
Track 13 cannot be verified as accurate (confidence 3) [A1CC0739], AccurateRip returned [3B9074C3] (AR v2)
Track 14 cannot be verified as accurate (confidence 3) [1E6CCF7D], AccurateRip returned [622E6D7B] (AR v2)
Track 15 cannot be verified as accurate (confidence 3) [14D10180], AccurateRip returned [024B0A3F] (AR v2)
No tracks could be verified as accurate
You may have a different pressing from the one(s) in the database
End of status report
---- CUETools DB Plugin V2.1.3
[CTDB TOCID: .2VYQWxAe75VrG5X0rCQySx4NeU-] found, Submit result: .2VYQWxAe75VrG5X0rCQySx4NeU- has been confirmed
[7e745390] (6/8) Accurately ripped
[06a09ce0] (1/8) No match
[b85b726c] (1/8) No match
==== Log checksum 93FCFBC1FF274FD11FA1B7E02475ECB7E533CEDB0347C7F0BEA5219040934799 ====

2000 - Янанебiбув

Треклист:
01. Янанебiбув [00:03:15]
02. Той день [00:03:55]
03. Мало менi [00:05:02]
04. Сосни [00:04:28]
05. Кавачай [00:04:36]
06. Вiдпусти [00:03:49]
07. Африка [00:04:21]
08. Поясни [00:03:36]
09. Фiалки [00:03:39]
10. Коли тебе нема [00:03:14]
11. Етюд [00:02:18]
Продолжительность: 00:42:17

Лог создания рипа

Exact Audio Copy V1.0 beta 3 from 29. August 2011
EAC extraction logfile from 13. July 2014, 13:26
Океан Ельзи / Я на небi був
Used drive : ATAPI iHAS124 B Adapter: 4 ID: 0
Read mode : Secure
Utilize accurate stream : Yes
Defeat audio cache : Yes
Make use of C2 pointers : No
Read offset correction : 6
Overread into Lead-In and Lead-Out : No
Fill up missing offset samples with silence : Yes
Delete leading and trailing silent blocks : No
Null samples used in CRC calculations : Yes
Used interface : Native Win32 interface for Win NT & 2000
Used output format : Internal WAV Routines
Sample format : 44.100 Hz; 16 Bit; Stereo
TOC of the extracted CD
Track | Start | Length | Start sector | End sector
---------------------------------------------------------
1 | 0:00.00 | 3:19.00 | 0 | 14924
2 | 3:19.00 | 3:58.32 | 14925 | 32806
3 | 7:17.32 | 5:06.30 | 32807 | 55786
4 | 12:23.62 | 4:31.54 | 55787 | 76165
5 | 16:55.41 | 4:39.69 | 76166 | 97159
6 | 21:35.35 | 3:52.34 | 97160 | 114593
7 | 25:27.69 | 4:24.60 | 114594 | 134453
8 | 29:52.54 | 3:39.56 | 134454 | 150934
9 | 33:32.35 | 3:43.00 | 150935 | 167659
10 | 37:15.35 | 3:17.69 | 167660 | 182503
11 | 40:33.29 | 2:21.45 | 182504 | 193123
Range status and errors
Selected range
Filename I:\Українська музика\Океан Ельзи - Дискографія 1998-2014 - lossless\Альбоми\2000 - Янанебiбув (2002, Lavina Music)\Океан Ельзи - Я на небi був 2000.2002 (Lavina Music).wav
Peak level 97.9 %
Extraction speed 1.7 X
Range quality 99.9 %
Test CRC DF9021EF
Copy CRC DF9021EF
Copy OK
No errors occurred
AccurateRip summary
Track 1 accurately ripped (confidence 2) [3392A400] (AR v2)
Track 2 accurately ripped (confidence 2) [B5F9AD33] (AR v2)
Track 3 accurately ripped (confidence 2) [D16F7F81] (AR v2)
Track 4 accurately ripped (confidence 2) [BA2537D1] (AR v2)
Track 5 accurately ripped (confidence 2) [E19315F3] (AR v2)
Track 6 accurately ripped (confidence 2) [2A2EABD3] (AR v2)
Track 7 accurately ripped (confidence 2) [D45F8241] (AR v2)
Track 8 accurately ripped (confidence 2) [6461C115] (AR v2)
Track 9 accurately ripped (confidence 2) [15B774D7] (AR v2)
Track 10 accurately ripped (confidence 2) [FE0165EB] (AR v2)
Track 11 accurately ripped (confidence 2) [9A92449E] (AR v2)
All tracks accurately ripped
End of status report
---- CUETools DB Plugin V2.1.3
[CTDB TOCID: OPhReW0dnvA9InydlAGyAVF0BXc-] found, Submit result: OPhReW0dnvA9InydlAGyAVF0BXc- has been confirmed
[6b667307] (5/5) Accurately ripped
==== Log checksum 3FA046C573046AAFD659BEB014722E04C9C6695A3831C3D11AF7E606AC8FFC33 ====

2001 - Модель

01. 911 [00:03:29]
02. Я до тебе [00:04:47]
03. Друг ч.1 [00:01:22]
04. Друг ч.2 [00:04:04]
05. Ти собi сама [00:03:49]
06. Квiтка [00:04:15]
07. Вставай [00:02:54]
08. Isn't It сон [00:03:40]
09. Коко Шанель [00:03:55]
10. Сьогоднi [00:03:28]
11. Вулиця (може все не так) [00:05:26]
Продолжительность: 00:41:13

Лог создания рипа

Exact Audio Copy V1.0 beta 3 from 29. August 2011
EAC extraction logfile from 13. July 2014, 13:44
Океан Ельзи / Модель
Exact Audio Copy V1.0 beta 3 from 29. August 2011
EAC extraction logfile from 14. July 2014, 9:59
Океан Ельзи / Модель
Used drive : ATAPI iHAS124 B Adapter: 4 ID: 0
Read mode : Secure
Utilize accurate stream : Yes
Defeat audio cache : Yes
Make use of C2 pointers : No
Read offset correction : 6
Overread into Lead-In and Lead-Out : No
Fill up missing offset samples with silence : Yes
Delete leading and trailing silent blocks : No
Null samples used in CRC calculations : Yes
Used interface : Native Win32 interface for Win NT & 2000
Used output format : Internal WAV Routines
Sample format : 44.100 Hz; 16 Bit; Stereo
TOC of the extracted CD
Track | Start | Length | Start sector | End sector
---------------------------------------------------------
1 | 0:00.00 | 3:29.06 | 0 | 15680
2 | 3:29.06 | 4:47.45 | 15681 | 37250
3 | 8:16.51 | 1:22.73 | 37251 | 43473
4 | 9:39.49 | 4:04.09 | 43474 | 61782
5 | 13:43.58 | 3:49.26 | 61783 | 78983
6 | 17:33.09 | 4:15.00 | 78984 | 98108
7 | 21:48.09 | 2:54.48 | 98109 | 111206
8 | 24:42.57 | 3:40.00 | 111207 | 127706
9 | 28:22.57 | 3:55.57 | 127707 | 145388
10 | 32:18.39 | 3:28.21 | 145389 | 161009
11 | 35:46.60 | 5:26.49 | 161010 | 185508
Range status and errors
Selected range
Filename I:\Українська музика\Океан Ельзи - Дискографія 1998-2014 - lossless\Альбоми\2001 - Модель (2002, Lavina Music)\Океан Ельзи - Модель 2001.2002 (Lavina Music).wav
Peak level 96.6 %
Extraction speed 5.8 X
Range quality 100.0 %
Test CRC B9E23500
Copy CRC B9E23500
Copy OK
No errors occurred
AccurateRip summary
Track 1 accurately ripped (confidence 4) [AAB78A18] (AR v2)
Track 2 accurately ripped (confidence 4) [487EF9B9] (AR v2)
Track 3 accurately ripped (confidence 4) [40FFD4EC] (AR v2)
Track 4 accurately ripped (confidence 4) [45D2D555] (AR v2)
Track 5 accurately ripped (confidence 4) [7AFA3661] (AR v2)
Track 6 accurately ripped (confidence 4) [00331B0E] (AR v2)
Track 7 accurately ripped (confidence 4) [19C04C39] (AR v2)
Track 8 accurately ripped (confidence 4) [996973D6] (AR v2)
Track 9 accurately ripped (confidence 4) [F99A1D10] (AR v2)
Track 10 accurately ripped (confidence 4) [0C2A3FC8] (AR v2)
Track 11 accurately ripped (confidence 4) [A0F9D95C] (AR v2)
All tracks accurately ripped
End of status report
---- CUETools DB Plugin V2.1.3
[CTDB TOCID: aR3SOWV5mcY8O5lUAX.uLtqDcNc-] found, Submit result: aR3SOWV5mcY8O5lUAX.uLtqDcNc- has been confirmed
[94807e2d] (7/7) Accurately ripped
==== Log checksum 893CC1AC5947D921D6AED73FCF9BC3EC00A85F8F9E3D84EC6ECBF7A323EDF657 ====

2003 - Суперсиметрiя

01. Кiшка [00:03:51]
02. Дiвчина (з iншого життя) [00:03:38]
03. Вiльний [00:03:49]
04. Susy [00:04:00]
05. Мене [00:03:24]
06. Для тебе [00:03:53]
07. Ледi [00:02:50]
08. Майже весна [00:04:11]
09. Холодно [00:04:32]
10. Вiддам [00:03:58]
11. Невидима сiм'я [00:04:19]
Продолжительность: 00:42:29

Лог создания рипа

Exact Audio Copy V1.0 beta 3 from 29. August 2011
EAC extraction logfile from 14. July 2014, 11:03
Океан Ельзи / Суперсиметрія
Used drive : ATAPI iHAS124 B Adapter: 4 ID: 0
Read mode : Secure
Utilize accurate stream : Yes
Defeat audio cache : Yes
Make use of C2 pointers : No
Read offset correction : 6
Overread into Lead-In and Lead-Out : No
Fill up missing offset samples with silence : Yes
Delete leading and trailing silent blocks : No
Null samples used in CRC calculations : Yes
Used interface : Native Win32 interface for Win NT & 2000
Used output format : Internal WAV Routines
Sample format : 44.100 Hz; 16 Bit; Stereo
TOC of the extracted CD
Track | Start | Length | Start sector | End sector
---------------------------------------------------------
1 | 0:00.00 | 3:51.05 | 0 | 17329
2 | 3:51.05 | 3:38.33 | 17330 | 33712
3 | 7:29.38 | 3:49.20 | 33713 | 50907
4 | 11:18.58 | 4:00.24 | 50908 | 68931
5 | 15:19.07 | 3:24.48 | 68932 | 84279
6 | 18:43.55 | 3:53.31 | 84280 | 101785
7 | 22:37.11 | 2:50.61 | 101786 | 114596
8 | 25:27.72 | 4:11.54 | 114597 | 133475
9 | 29:39.51 | 4:32.61 | 133476 | 153936
10 | 34:12.37 | 3:58.08 | 153937 | 171794
11 | 38:10.45 | 4:19.06 | 171795 | 191225
Range status and errors
Selected range
Filename I:\Українська музика\Океан Ельзи - Дискографія 1998-2014 - lossless\Альбоми\2003 - Суперсиметрiя\Океан Ельзи - 2003 - Суперсиметрія.wav
Peak level 98.6 %
Extraction speed 1.8 X
Range quality 100.0 %
Test CRC 89874A41
Copy CRC 89874A41
Copy OK
No errors occurred
AccurateRip summary
Track 1 accurately ripped (confidence 5) [FCF1AE7E] (AR v2)
Track 2 accurately ripped (confidence 5) [C9248D67] (AR v2)
Track 3 accurately ripped (confidence 5) [7DE9165D] (AR v2)
Track 4 accurately ripped (confidence 5) [33179C76] (AR v2)
Track 5 accurately ripped (confidence 5) [87603C48] (AR v2)
Track 6 accurately ripped (confidence 5) [ECE9EA15] (AR v2)
Track 7 accurately ripped (confidence 5) [FE09141C] (AR v2)
Track 8 accurately ripped (confidence 5) [8747CB46] (AR v2)
Track 9 accurately ripped (confidence 5) [B41B4DDF] (AR v2)
Track 10 accurately ripped (confidence 5) [FB8B7C6B] (AR v2)
Track 11 accurately ripped (confidence 4) [F9FE23F6] (AR v2)
All tracks accurately ripped
End of status report
---- CUETools DB Plugin V2.1.3
[CTDB TOCID: aivyd6EADlnmMXGJa0frSA5rB7w-] found, Submit result: aivyd6EADlnmMXGJa0frSA5rB7w- has been confirmed
[84477645] (13/15) Accurately ripped
[34a1904b] (01/15) No match
[ed997f07] (01/15) No match
==== Log checksum 3722573884AEAE8538FC132DED5FCF7B316D0621483DB1CAAEA0B65CEB7A662B ====

2005 - Gloria

01. Перша пiсня [00:03:44]
02. Ти i я [00:03:29]
03. Вище неба [00:03:58]
04. Сонце сiдає [00:03:10]
05. Нiколи [00:03:18]
06. Тiнь твого тiла [00:03:14]
07. Без бою [00:04:19]
08. GLORIA [00:03:26]
09. Вiдчуваю [00:04:15]
10. Iкони не плачуть [00:04:12]
11. Як останнiй день [00:02:54]
12. Не питай [00:02:37]
Продолжительность: 00:42:41

Лог создания рипа

Exact Audio Copy V1.0 beta 3 from 29. August 2011
EAC extraction logfile from 16. July 2014, 11:49
Океан Ельзи / Gloria
Used drive : ATAPI iHAS124 B Adapter: 4 ID: 0
Read mode : Secure
Utilize accurate stream : Yes
Defeat audio cache : Yes
Make use of C2 pointers : No
Read offset correction : 6
Overread into Lead-In and Lead-Out : No
Fill up missing offset samples with silence : Yes
Delete leading and trailing silent blocks : No
Null samples used in CRC calculations : Yes
Used interface : Native Win32 interface for Win NT & 2000
Used output format : Internal WAV Routines
Sample format : 44.100 Hz; 16 Bit; Stereo
TOC of the extracted CD
Track | Start | Length | Start sector | End sector
---------------------------------------------------------
1 | 0:00.00 | 3:45.12 | 0 | 16886
2 | 3:45.12 | 3:29.56 | 16887 | 32617
3 | 7:14.68 | 3:59.19 | 32618 | 50561
4 | 11:14.12 | 3:10.53 | 50562 | 64864
5 | 14:24.65 | 3:19.44 | 64865 | 79833
6 | 17:44.34 | 3:15.45 | 79834 | 94503
7 | 21:00.04 | 4:19.71 | 94504 | 113999
8 | 25:20.00 | 3:26.29 | 114000 | 129478
9 | 28:46.29 | 4:16.08 | 129479 | 148686
10 | 33:02.37 | 4:12.74 | 148687 | 167660
11 | 37:15.36 | 2:54.65 | 167661 | 180775
12 | 40:10.26 | 2:37.32 | 180776 | 192582
Range status and errors
Selected range
Filename I:\Українська музика\Океан Ельзи - Дискографія 1998-2014 - lossless\Альбоми\2005 - Gloria\Океан Ельзи - 2005 - Gloria.wav
Peak level 100.0 %
Extraction speed 1.3 X
Range quality 100.0 %
Test CRC D6C6FAFA
Copy CRC D6C6FAFA
Copy OK
No errors occurred
AccurateRip summary
Track 1 accurately ripped (confidence 4) [23F85A12] (AR v2)
Track 2 accurately ripped (confidence 4) [57412488] (AR v2)
Track 3 accurately ripped (confidence 4) [8C217D57] (AR v2)
Track 4 accurately ripped (confidence 4) [13737CD9] (AR v2)
Track 5 accurately ripped (confidence 4) [82508564] (AR v2)
Track 6 accurately ripped (confidence 4) [1C410AAF] (AR v2)
Track 7 accurately ripped (confidence 4) [4CAAC28F] (AR v2)
Track 8 accurately ripped (confidence 4) [0070605D] (AR v2)
Track 9 accurately ripped (confidence 4) [55144051] (AR v2)
Track 10 accurately ripped (confidence 4) [92F72ACF] (AR v2)
Track 11 accurately ripped (confidence 4) [45737F83] (AR v2)
Track 12 accurately ripped (confidence 4) [154875C3] (AR v2)
All tracks accurately ripped
End of status report
---- CUETools DB Plugin V2.1.3
[CTDB TOCID: MhLNOgck8aL_ElkIKDxsqm9aPkk-] found, Submit result: MhLNOgck8aL_ElkIKDxsqm9aPkk- has been confirmed
[ee83e799] (11/11) Accurately ripped
==== Log checksum CE1D1DA15521DE0ECC948874F6345FA0D1B0D6EBCAFF35AEFBAF12025DC13D6D ====

2007 - Мiра

01. Мiра [00:04:01]
02. День у день [00:02:54]
03. Хочу напитися тобою [00:03:40]
04. Пташка [00:02:43]
05. Зеленi очi [00:04:07]
06. Коли тобi важко [00:03:52]
07. Як довго [00:03:02]
08. Не можу без тебе [00:02:34]
09. Лелеки [00:04:03]
10. Ночi i днi [00:03:01]
11. Все буде добре [00:03:08]
12. Моя мала [00:03:37]
Продолжительность: 00:40:48

Лог создания рипа

Exact Audio Copy V1.0 beta 3 from 29. August 2011
EAC extraction logfile from 17. July 2014, 8:55
Океан Ельзи / Міра
Used drive : ATAPI iHAS124 B Adapter: 4 ID: 0
Read mode : Secure
Utilize accurate stream : Yes
Defeat audio cache : Yes
Make use of C2 pointers : No
Read offset correction : 6
Overread into Lead-In and Lead-Out : No
Fill up missing offset samples with silence : Yes
Delete leading and trailing silent blocks : No
Null samples used in CRC calculations : Yes
Used interface : Native Win32 interface for Win NT & 2000
Used output format : Internal WAV Routines
Sample format : 44.100 Hz; 16 Bit; Stereo
TOC of the extracted CD
Track | Start | Length | Start sector | End sector
---------------------------------------------------------
1 | 0:00.00 | 4:01.58 | 0 | 18132
2 | 4:01.58 | 2:55.18 | 18133 | 31275
3 | 6:57.01 | 3:40.72 | 31276 | 47847
4 | 10:37.73 | 2:43.49 | 47848 | 60121
5 | 13:21.47 | 4:08.20 | 60122 | 78741
6 | 17:29.67 | 3:52.49 | 78742 | 96190
7 | 21:22.41 | 3:02.37 | 96191 | 109877
8 | 24:25.03 | 2:35.19 | 109878 | 121521
9 | 27:00.22 | 4:04.32 | 121522 | 139853
10 | 31:04.54 | 3:02.27 | 139854 | 153530
11 | 34:07.06 | 3:10.59 | 153531 | 167839
12 | 37:17.65 | 3:39.28 | 167840 | 184292
Range status and errors
Selected range
Filename I:\Українська музика\Океан Ельзи - Дискографія 1998-2014 - lossless\Альбоми\2007 - Мiра\Океан Ельзи - 2007 - Міра.wav
Peak level 100.0 %
Extraction speed 5.3 X
Range quality 100.0 %
Test CRC 8FA543B9
Copy CRC 8FA543B9
Copy OK
No errors occurred
AccurateRip summary
Track 1 accurately ripped (confidence 7) [A5CD4E3B] (AR v2)
Track 2 accurately ripped (confidence 7) [FE6747DF] (AR v2)
Track 3 accurately ripped (confidence 7) [C8D0FD0D] (AR v2)
Track 4 accurately ripped (confidence 7) [B3AF33E1] (AR v2)
Track 5 accurately ripped (confidence 7) [BF7668BA] (AR v2)
Track 6 accurately ripped (confidence 7) [250785D0] (AR v2)
Track 7 accurately ripped (confidence 7) [CC97D9CA] (AR v2)
Track 8 accurately ripped (confidence 7) [3F7876F7] (AR v2)
Track 9 accurately ripped (confidence 7) [5C7E1039] (AR v2)
Track 10 accurately ripped (confidence 7) [C4FD3F67] (AR v2)
Track 11 accurately ripped (confidence 7) [BC987268] (AR v2)
Track 12 accurately ripped (confidence 7) [1828DE7A] (AR v2)
All tracks accurately ripped
End of status report
---- CUETools DB Plugin V2.1.3
[CTDB TOCID: H.v3dj_45aDY7fRccyFPClzQgUI-] found, Submit result: H.v3dj_45aDY7fRccyFPClzQgUI- has been confirmed
[94638f79] (8/8) Accurately ripped
==== Log checksum 03F193FB30D06774254B06F38E2C9729D25E6194405F76E315A63FE12BE4224F ====

2010 - Dolce Vita

01. Онлайн [00:03:52]
02. Небо над Днiпром [00:04:16]
03. Надя [00:03:56]
04. Я так хочу... [00:04:41]
05. На лiнiї вогню [00:03:01]
06. Бiльше для нас [00:03:30]
07. Ордени [00:03:49]
08. З тобою [00:03:05]
09. Ще один день [00:04:13]
10. Королева [00:04:17]
11. 18 хвилин [00:04:23]
12. Компас [00:04:28]
13. Dolce Vita [00:05:10]
14. Ой, чий там кiнь стоїть (народна пiсня) [Bonus Track] [00:03:39]
Продолжительность: 00:56:45

Лог создания рипа

Exact Audio Copy V1.0 beta 3 from 29. August 2011
EAC extraction logfile from 18. July 2014, 12:27
Океан Ельзи / Dolce Vita
Used drive : ATAPI iHAS124 B Adapter: 4 ID: 0
Read mode : Secure
Utilize accurate stream : Yes
Defeat audio cache : Yes
Make use of C2 pointers : No
Read offset correction : 6
Overread into Lead-In and Lead-Out : No
Fill up missing offset samples with silence : Yes
Delete leading and trailing silent blocks : No
Null samples used in CRC calculations : Yes
Used interface : Native Win32 interface for Win NT & 2000
Used output format : Internal WAV Routines
Sample format : 44.100 Hz; 16 Bit; Stereo
TOC of the extracted CD
Track | Start | Length | Start sector | End sector
---------------------------------------------------------
1 | 0:00.00 | 3:52.28 | 0 | 17427
2 | 3:52.28 | 4:16.71 | 17428 | 36698
3 | 8:09.24 | 3:56.20 | 36699 | 54418
4 | 12:05.44 | 4:41.53 | 54419 | 75546
5 | 16:47.22 | 3:01.05 | 75547 | 89126
6 | 19:48.27 | 3:30.07 | 89127 | 104883
7 | 23:18.34 | 3:49.07 | 104884 | 122065
8 | 27:07.41 | 3:05.22 | 122066 | 135962
9 | 30:12.63 | 4:13.03 | 135963 | 154940
10 | 34:25.66 | 4:17.26 | 154941 | 174241
11 | 38:43.17 | 4:23.70 | 174242 | 194036
12 | 43:07.12 | 4:28.16 | 194037 | 214152
13 | 47:35.28 | 5:20.55 | 214153 | 238207
14 | 52:56.08 | 3:49.53 | 238208 | 255435
Range status and errors
Selected range
Filename I:\Українська музика\Океан Ельзи - Дискографія 1998-2014 - lossless\Альбоми\2010 - Dolce Vita\Океан Ельзи - 2010 - Dolce Vita.wav
Peak level 98.8 %
Extraction speed 1.9 X
Range quality 100.0 %
Test CRC 0D01A226
Copy CRC 0D01A226
Copy OK
No errors occurred
AccurateRip summary
Track 1 accurately ripped (confidence 4) [1460D63A] (AR v2)
Track 2 accurately ripped (confidence 4) [E94740F9] (AR v2)
Track 3 accurately ripped (confidence 4) [81EA6382] (AR v2)
Track 4 accurately ripped (confidence 4) [BDC3198B] (AR v2)
Track 5 accurately ripped (confidence 4) [A358768C] (AR v2)
Track 6 accurately ripped (confidence 4) [AAD354BC] (AR v2)
Track 7 accurately ripped (confidence 4) [C038366B] (AR v2)
Track 8 accurately ripped (confidence 4) [0EFE50B5] (AR v2)
Track 9 accurately ripped (confidence 4) [B9C2596E] (AR v2)
Track 10 accurately ripped (confidence 4) [5DB7BFCC] (AR v2)
Track 11 accurately ripped (confidence 4) [47EE2B76] (AR v2)
Track 12 accurately ripped (confidence 4) [673C3ACE] (AR v2)
Track 13 accurately ripped (confidence 4) [2D09820A] (AR v2)
Track 14 accurately ripped (confidence 4) [93E96F4D] (AR v2)
All tracks accurately ripped
End of status report
==== Log checksum 3F72FC7BA9474B8A4A0BB1AB856CACA748627C851C121C726288CD66BC99ACD2 ====

2010 - Dolce Vita (Remastered)

01. Онлайн [00:03:52]
02. Небо над Днiпром [00:04:16]
03. Надя [00:03:56]
04. Я так хочу... [00:04:41]
05. На лiнiї вогню [00:03:01]
06. Бiльше для нас [00:03:30]
07. Ордени [00:03:49]
08. З тобою [00:03:05]
09. Ще один день [00:04:13]
10. Королева [00:04:17]
11. 18 хвилин [00:04:23]
12. Компас [00:04:28]
13. Dolce Vita [00:05:10]
14. Ой, чий там кiнь стоїть (народна пiсня) [Bonus Track] [00:03:39]
Продолжительность: 00:56:45

Лог создания рипа

Exact Audio Copy V1.0 beta 3 from 29. August 2011
EAC extraction logfile from 18. July 2014, 13:34
Океан Ельзи / Dolce Vita (Remastered)
Used drive : ATAPI iHAS124 B Adapter: 4 ID: 0
Read mode : Secure
Utilize accurate stream : Yes
Defeat audio cache : Yes
Make use of C2 pointers : No
Read offset correction : 6
Overread into Lead-In and Lead-Out : No
Fill up missing offset samples with silence : Yes
Delete leading and trailing silent blocks : No
Null samples used in CRC calculations : Yes
Used interface : Native Win32 interface for Win NT & 2000
Used output format : Internal WAV Routines
Sample format : 44.100 Hz; 16 Bit; Stereo
TOC of the extracted CD
Track | Start | Length | Start sector | End sector
---------------------------------------------------------
1 | 0:00.00 | 3:52.72 | 0 | 17471
2 | 3:52.72 | 4:16.29 | 17472 | 36700
3 | 8:09.26 | 3:56.20 | 36701 | 54420
4 | 12:05.46 | 4:41.52 | 54421 | 75547
5 | 16:47.23 | 3:01.06 | 75548 | 89128
6 | 19:48.29 | 3:30.07 | 89129 | 104885
7 | 23:18.36 | 3:49.05 | 104886 | 122065
8 | 27:07.41 | 3:05.21 | 122066 | 135961
9 | 30:12.62 | 4:13.06 | 135962 | 154942
10 | 34:25.68 | 4:17.26 | 154943 | 174243
11 | 38:43.19 | 4:23.70 | 174244 | 194038
12 | 43:07.14 | 4:28.16 | 194039 | 214154
13 | 47:35.30 | 5:20.53 | 214155 | 238207
14 | 52:56.08 | 3:49.57 | 238208 | 255439
Range status and errors
Selected range
Filename I:\Українська музика\Океан Ельзи - Дискографія 1998-2014 - lossless\Альбоми\2010 - Dolce Vita (Remastered)\Океан Ельзи - 2010 - Dolce Vita (Remastered).wav
Peak level 100.0 %
Extraction speed 1.9 X
Range quality 100.0 %
Test CRC B4D626AB
Copy CRC B4D626AB
Copy OK
No errors occurred
AccurateRip summary
Track 1 accurately ripped (confidence 2) [0296AE4C] (AR v2)
Track 2 accurately ripped (confidence 2) [07336E26] (AR v2)
Track 3 accurately ripped (confidence 2) [E4D46AF6] (AR v2)
Track 4 accurately ripped (confidence 2) [C8C241B8] (AR v2)
Track 5 accurately ripped (confidence 2) [2C5C0EB3] (AR v2)
Track 6 accurately ripped (confidence 2) [AC1BC3C0] (AR v2)
Track 7 accurately ripped (confidence 2) [CE8617FE] (AR v2)
Track 8 accurately ripped (confidence 2) [074A2086] (AR v2)
Track 9 accurately ripped (confidence 2) [000F5739] (AR v2)
Track 10 accurately ripped (confidence 2) [767AC821] (AR v2)
Track 11 accurately ripped (confidence 2) [8D4ECAB4] (AR v2)
Track 12 accurately ripped (confidence 2) [2F590280] (AR v2)
Track 13 accurately ripped (confidence 2) [2EBA697B] (AR v2)
Track 14 accurately ripped (confidence 2) [8669C58B] (AR v2)
All tracks accurately ripped
End of status report
==== Log checksum 6E9D230C5A24A453CE7A5EECA3A44E224FF288EF51BEBAA30E8FA583BFE63A0C ====

2013 - Земля

01. З нею [00:04:59]
02. Стіна [00:03:28]
03. Бодегіта [00:06:58]
04. Незалежність [00:08:12]
05. Rendez-vous [00:06:34]
06. Стріляй [00:08:25]
07. Обійми [00:09:40]
08. Караван [00:07:30]
09. Джульєтта [00:07:46]
10. На небі [00:09:17]
11. Пори року [00:07:27]
12. Коли навколо ні душі... [00:09:52]
Продолжительность: 0:49:16

Лог создания рипа

Exact Audio Copy V1.0 beta 3 from 29. August 2011
EAC extraction logfile from 17. July 2014, 12:00
Океан Ельзи / Земля
Used drive : ATAPI iHAS124 B Adapter: 4 ID: 0
Read mode : Secure
Utilize accurate stream : Yes
Defeat audio cache : Yes
Make use of C2 pointers : No
Read offset correction : 6
Overread into Lead-In and Lead-Out : No
Fill up missing offset samples with silence : Yes
Delete leading and trailing silent blocks : No
Null samples used in CRC calculations : Yes
Used interface : Native Win32 interface for Win NT & 2000
Used output format : Internal WAV Routines
Sample format : 44.100 Hz; 16 Bit; Stereo
TOC of the extracted CD
Track | Start | Length | Start sector | End sector
---------------------------------------------------------
1 | 0:00.00 | 4:59.43 | 0 | 22467
2 | 4:59.43 | 3:30.25 | 22468 | 38242
3 | 8:29.68 | 4:07.02 | 38243 | 56769
4 | 12:36.70 | 3:17.62 | 56770 | 71606
5 | 15:54.57 | 4:13.38 | 71607 | 90619
6 | 20:08.20 | 4:51.37 | 90620 | 112481
7 | 24:59.57 | 3:45.69 | 112482 | 129425
8 | 28:45.51 | 3:53.70 | 129426 | 146970
9 | 32:39.46 | 4:40.03 | 146971 | 167973
10 | 37:19.49 | 3:44.50 | 167974 | 184823
11 | 41:04.24 | 4:58.25 | 184824 | 207198
12 | 46:02.49 | 3:13.26 | 207199 | 221699
Range status and errors
Selected range
Filename I:\Українська музика\Океан Ельзи - Дискографія 1998-2014 - lossless\Альбоми\2013 - Земля\Океан Ельзи - 2013 - Земля.wav
Peak level 100.0 %
Extraction speed 1.9 X
Range quality 100.0 %
Test CRC 73C4D196
Copy CRC 73C4D196
Copy OK
No errors occurred
AccurateRip summary
Track 1 accurately ripped (confidence 3) [433E074C] (AR v2)
Track 2 accurately ripped (confidence 3) [FDA53598] (AR v2)
Track 3 accurately ripped (confidence 3) [361A001C] (AR v2)
Track 4 accurately ripped (confidence 3) [065681B7] (AR v2)
Track 5 accurately ripped (confidence 3) [535A6A3D] (AR v2)
Track 6 accurately ripped (confidence 3) [80B7E268] (AR v2)
Track 7 accurately ripped (confidence 3) [9FC6F28D] (AR v2)
Track 8 accurately ripped (confidence 3) [EBAECC32] (AR v2)
Track 9 accurately ripped (confidence 3) [1D077AFD] (AR v2)
Track 10 accurately ripped (confidence 3) [77876ED3] (AR v2)
Track 11 accurately ripped (confidence 3) [17F84AC1] (AR v2)
Track 12 accurately ripped (confidence 3) [49E797C2] (AR v2)
All tracks accurately ripped
End of status report
---- CUETools DB Plugin V2.1.3
[CTDB TOCID: f8L4n6yzxBDFtpPICK_zJqG92aY-] found, Submit result: f8L4n6yzxBDFtpPICK_zJqG92aY- has been confirmed
[d06349ea] (9/9) Accurately ripped
==== Log checksum C285FF8E53EBF2F005595B10EA25905BD78BB609106386F0B7BB54D9F86E27F4 ====
-Сингли

2002 - Холодно

01. Холодно [00:04:32]
02. Susy [00:04:02]
03. Холодно (Ambient Version) [00:04:37]
Продолжительность: 00:13:11

Лог создания рипа

Exact Audio Copy V0.99 prebeta 3 from 28. July 2007
EAC extraction logfile from 31. October 2007, 12:17
Океан Ельзи / Холодно
Used drive : _NEC DVD_RW ND-3550A Adapter: 1 ID: 0
Read mode : Secure
Utilize accurate stream : Yes
Defeat audio cache : Yes
Make use of C2 pointers : No
Read offset correction : 48
Overread into Lead-In and Lead-Out : No
Fill up missing offset samples with silence : Yes
Delete leading and trailing silent blocks : No
Null samples used in CRC calculations : Yes
Used interface : Installed external ASPI interface
Used output format : Monkey's Audio Lossless Encoder v3.99 DLL
Sample format : Normal Lossless Compression
TOC of the extracted CD
Track | Start | Length | Start sector | End sector
---------------------------------------------------------
1 | 0:00.00 | 4:34.37 | 0 | 20586
2 | 4:34.37 | 4:04.09 | 20587 | 38895
3 | 8:38.46 | 4:39.04 | 38896 | 59824
Range status and errors
Selected range
Filename E:\!tracker\OKEAN_ELZY\okean.elzy-2002-holodno.(single)\Okean Elzy - Holodno.ape
Peak level 100.0 %
Range quality 100.0 %
Copy CRC D33DC455
Copy OK
No errors occurred
AccurateRip summary
Track 1 not present in database
Track 2 not present in database
Track 3 not present in database
None of the tracks are present in the AccurateRip database
End of status report

2004 - Дякую!

01. Дякую! [02:25]

Лог создания рипа

Exact Audio Copy V1.0 beta 3 from 29. August 2011
EAC extraction logfile from 14. July 2014, 10:10
Океан Ельзи / Дякую!
Used drive : ATAPI iHAS124 B Adapter: 4 ID: 0
Read mode : Secure
Utilize accurate stream : Yes
Defeat audio cache : Yes
Make use of C2 pointers : No
Read offset correction : 6
Overread into Lead-In and Lead-Out : No
Fill up missing offset samples with silence : Yes
Delete leading and trailing silent blocks : No
Null samples used in CRC calculations : Yes
Used interface : Native Win32 interface for Win NT & 2000
Used output format : Internal WAV Routines
Sample format : 44.100 Hz; 16 Bit; Stereo
TOC of the extracted CD
Track | Start | Length | Start sector | End sector
---------------------------------------------------------
1 | 0:00.00 | 2:25.13 | 0 | 10887
Range status and errors
Selected range
Filename I:\Українська музика\Океан Ельзи - Дискографія 1998-2014 - lossless\Сингли\2004 - Дякую!\Океан Ельзи (2004) Дякую!.wav
Peak level 100.0 %
Extraction speed 0.7 X
Range quality 100.0 %
Test CRC 52C312A9
Copy CRC 52C312A9
Copy OK
No errors occurred
AccurateRip summary
Track 1 accurately ripped (confidence 1) [DDAA4EF4] (AR v2)
All tracks accurately ripped
End of status report
---- CUETools DB Plugin V2.1.3
[CTDB TOCID: fJzhjSKJpda5sUcDMOWfy4zCUok-] found, Submit result: fJzhjSKJpda5sUcDMOWfy4zCUok- has been confirmed
[236b7bbf] (1/1) Accurately ripped
==== Log checksum 7C0F4BC6A9051C735FE569055E323F344B3E9FFD7C2B00250F6D66FB71367702 ====

2006 - Веселi, брате, часи настали...

Продолжительность: 00:03:32
Треклист:
01. Веселi, брате, часи настали... [00:03:32]

Лог создания рипа

EAC extraction logfile from 3. March 2007, 11:10 for CD
Океан Ельзи / Веселi, брате, часи настали... (сингл)
Used drive : ASUS CRW-5232AS Adapter: 1 ID: 1
Read mode : Secure with NO C2, accurate stream, disable cache
Read offset correction : 6
Overread into Lead-In and Lead-Out : No
Used output format : C:\Program Files\Monkey's Audio\wapet.exe (User Defined Encoder)
320 kBit/s
Additional command line options : %d -t "Artist=%a" -t "Title=%t" -t "Album=%g" -t "Year=%y" -t "Track=%n" -t "Genre=%m" "C:\Program Files\Monkey's Audio\mac.exe" %s %d -c4000
Other options :
Fill up missing offset samples with silence : Yes
Delete leading and trailing silent blocks : No
Native Win32 interface for Win NT & 2000
Range status and errors
Selected range
Filename E:\!tracker\okean_elzy_2006_veseli_brate_chasy_nastaly\Okean Elzy - Veseli Brate Chasy Nastaly (CD Single).wav
Peak level 100.0 %
Range quality 100.0 %
CRC EFB26D10
Copy OK
No errors occured
End of status report
-Акустичні альбоми:

2003 - tviй формат

01. Дiвчина (iз iншого життя) [00:03:41]
02. Мало менi [00:05:22]
03. Холодно [00:05:08]
04. Поясни [00:03:51]
05. Етюд [00:03:23]
06. Сосни [00:04:38]
07. Мене [00:03:03]
08. Для тебе [00:03:33]
09. Невидима сiм'я [00:04:14]
10. Ото була весна [00:03:57]
11. Вiддам [00:04:03]
12. Я їду додому (бонус-трек) [00:01:59]
Продолжительность: 00:46:57

Лог создания рипа

Exact Audio Copy V1.0 beta 3 from 29. August 2011
EAC extraction logfile from 16. July 2014, 10:06
Океан Ельзи / Tviй формат
Used drive : ATAPI iHAS124 B Adapter: 4 ID: 0
Read mode : Secure
Utilize accurate stream : Yes
Defeat audio cache : Yes
Make use of C2 pointers : No
Read offset correction : 6
Overread into Lead-In and Lead-Out : No
Fill up missing offset samples with silence : Yes
Delete leading and trailing silent blocks : No
Null samples used in CRC calculations : Yes
Used interface : Native Win32 interface for Win NT & 2000
Used output format : Internal WAV Routines
Sample format : 44.100 Hz; 16 Bit; Stereo
TOC of the extracted CD
Track | Start | Length | Start sector | End sector
---------------------------------------------------------
1 | 0:00.00 | 3:41.52 | 0 | 16626
2 | 3:41.52 | 5:22.70 | 16627 | 40846
3 | 9:04.47 | 5:08.64 | 40847 | 64010
4 | 14:13.36 | 3:51.10 | 64011 | 81345
5 | 18:04.46 | 3:23.34 | 81346 | 96604
6 | 21:28.05 | 4:38.10 | 96605 | 117464
7 | 26:06.15 | 3:03.47 | 117465 | 131236
8 | 29:09.62 | 3:33.66 | 131237 | 147277
9 | 32:43.53 | 4:14.24 | 147278 | 166351
10 | 36:58.02 | 3:57.08 | 166352 | 184134
11 | 40:55.10 | 4:03.08 | 184135 | 202367
12 | 44:58.18 | 1:59.24 | 202368 | 211316
Range status and errors
Selected range
Filename I:\Українська музика\Океан Ельзи - Дискографія 1998-2014 - lossless\Акустичні альбоми\2003 - Тviй формат\Океан Ельзи - 2003 - Tviй формат.wav
Peak level 100.0 %
Extraction speed 5.5 X
Range quality 100.0 %
Test CRC F2FDB2F2
Copy CRC F2FDB2F2
Copy OK
No errors occurred
AccurateRip summary
Track 1 accurately ripped (confidence 2) [3976783D] (AR v2)
Track 2 accurately ripped (confidence 2) [D739A34E] (AR v2)
Track 3 accurately ripped (confidence 2) [6CF22012] (AR v2)
Track 4 accurately ripped (confidence 2) [0021C43D] (AR v2)
Track 5 accurately ripped (confidence 2) [BDAA6ECC] (AR v2)
Track 6 accurately ripped (confidence 2) [7D743BB2] (AR v2)
Track 7 accurately ripped (confidence 2) [5011043C] (AR v2)
Track 8 accurately ripped (confidence 2) [C98902B7] (AR v2)
Track 9 accurately ripped (confidence 2) [2AC954BB] (AR v2)
Track 10 accurately ripped (confidence 2) [C8ED5AEE] (AR v2)
Track 11 accurately ripped (confidence 2) [F8E5E3DE] (AR v2)
Track 12 accurately ripped (confidence 2) [72A2EF93] (AR v2)
All tracks accurately ripped
End of status report
---- CUETools DB Plugin V2.1.3
[CTDB TOCID: xbYPD6GV4HjLcXCO3bH8s9ctL04-] found, Submit result: xbYPD6GV4HjLcXCO3bH8s9ctL04- has been confirmed
[0d623ec1] (10/10) Accurately ripped
==== Log checksum D6E1F59623BAFA138769D4C1C2CF41EFBE86C8CD5CDF1E1DFEFE7859E3170C7E ====
-Збірки:

2006 - 1221

01. Long Time Ago [00:03:46]
02. Вона пiдiйшла до вiкна [00:04:31]
03. Там, де нас нема [00:03:27]
04. Поїзд 'чужа любов' [00:03:57]
05. Йду на дно [00:03:32]
06. Янанебiбув [00:03:15]
07. Той день [00:03:55]
08. Вiдпусти [00:03:48]
09. Ото була весна [00:04:46]
10. Вставай [00:02:54]
11. Друг (ч.1) [00:01:22]
12. Друг (ч.2) [00:04:03]
13. Вулиця [00:04:46]
14. 911 (тихий океан) [00:03:37]
15. Майже весна [00:04:10]
16. Холодно [00:03:50]
17. Дiвчина з iншого життя [00:03:38]
18. Без бою [00:04:18]
19. Вiдчуваю (версiя-2) [00:03:56]
20. Вище неба [00:03:58]
21. Не питай [00:02:34]
Продолжительность: 01:18:12

Лог создания рипа

Exact Audio Copy V1.0 beta 3 from 29. August 2011
EAC extraction logfile from 16. July 2014, 14:14
Океан Ельзи / 1221
Used drive : ATAPI iHAS124 B Adapter: 4 ID: 0
Read mode : Secure
Utilize accurate stream : Yes
Defeat audio cache : Yes
Make use of C2 pointers : No
Read offset correction : 6
Overread into Lead-In and Lead-Out : No
Fill up missing offset samples with silence : Yes
Delete leading and trailing silent blocks : No
Null samples used in CRC calculations : Yes
Used interface : Native Win32 interface for Win NT & 2000
Used output format : Internal WAV Routines
Sample format : 44.100 Hz; 16 Bit; Stereo
TOC of the extracted CD
Track | Start | Length | Start sector | End sector
---------------------------------------------------------
1 | 0:00.00 | 3:48.07 | 0 | 17106
2 | 3:48.07 | 4:33.04 | 17107 | 37585
3 | 8:21.11 | 3:29.18 | 37586 | 53278
4 | 11:50.29 | 3:58.65 | 53279 | 71193
5 | 15:49.19 | 3:34.38 | 71194 | 87281
6 | 19:23.57 | 3:17.09 | 87282 | 102065
7 | 22:40.66 | 3:57.09 | 102066 | 119849
8 | 26:38.00 | 3:50.13 | 119850 | 137112
9 | 30:28.13 | 4:47.50 | 137113 | 158687
10 | 35:15.63 | 2:56.43 | 158688 | 171930
11 | 38:12.31 | 1:22.73 | 171931 | 178153
12 | 39:35.29 | 4:05.65 | 178154 | 196593
13 | 43:41.19 | 4:48.62 | 196594 | 218255
14 | 48:30.06 | 3:39.24 | 218256 | 234704
15 | 52:09.30 | 4:12.11 | 234705 | 253615
16 | 56:21.41 | 3:52.26 | 253616 | 271041
17 | 60:13.67 | 3:40.22 | 271042 | 287563
18 | 63:54.14 | 4:20.06 | 287564 | 307069
19 | 68:14.20 | 3:57.51 | 307070 | 324895
20 | 72:11.71 | 4:00.06 | 324896 | 342901
21 | 76:12.02 | 2:36.06 | 342902 | 354607
Range status and errors
Selected range
Filename I:\Українська музика\Океан Ельзи - Дискографія 1998-2014 - lossless\Збірки\2006 - 1221\Океан Ельзи - 2006 - 1221.wav
Peak level 100.0 %
Extraction speed 6.8 X
Range quality 100.0 %
Test CRC 00B6E451
Copy CRC 00B6E451
Copy OK
No errors occurred
AccurateRip summary
Track 1 accurately ripped (confidence 4) [DA81EEC4] (AR v2)
Track 2 accurately ripped (confidence 4) [2FCA5B81] (AR v2)
Track 3 accurately ripped (confidence 4) [DD6812D3] (AR v2)
Track 4 accurately ripped (confidence 4) [41429E5E] (AR v2)
Track 5 accurately ripped (confidence 4) [B06D8496] (AR v2)
Track 6 accurately ripped (confidence 4) [6A1DA3AD] (AR v2)
Track 7 accurately ripped (confidence 4) [2CF16AF1] (AR v2)
Track 8 accurately ripped (confidence 4) [76786967] (AR v2)
Track 9 accurately ripped (confidence 4) [ACBD28F4] (AR v2)
Track 10 accurately ripped (confidence 4) [132A291B] (AR v2)
Track 11 accurately ripped (confidence 4) [FF71D701] (AR v2)
Track 12 accurately ripped (confidence 4) [13A4ABE4] (AR v2)
Track 13 accurately ripped (confidence 4) [56931788] (AR v2)
Track 14 accurately ripped (confidence 4) [75FD4127] (AR v2)
Track 15 accurately ripped (confidence 4) [6725AC63] (AR v2)
Track 16 accurately ripped (confidence 4) [ED0C81CE] (AR v2)
Track 17 accurately ripped (confidence 4) [6E1126E9] (AR v2)
Track 18 accurately ripped (confidence 4) [0F9CFDB5] (AR v2)
Track 19 accurately ripped (confidence 4) [B6D823D0] (AR v2)
Track 20 accurately ripped (confidence 4) [8A1CF284] (AR v2)
Track 21 accurately ripped (confidence 4) [08A0318E] (AR v2)
All tracks accurately ripped
End of status report
---- CUETools DB Plugin V2.1.3
[CTDB TOCID: uWgEZh7uFvq2Mxq.77wGlzK605A-] found, Submit result: uWgEZh7uFvq2Mxq.77wGlzK605A- has been confirmed
[3edb1da2] (3/3) Accurately ripped
==== Log checksum D948975C06F9F8E87CB9362B0E7086225DC804123DCE7A56BC4933DA85CB0F5B ====

2007 - Вибране…

01. Все буде добре [00:03:08]
02. Вище неба [00:03:57]
03. Вставай [00:02:54]
04. Холодно [00:03:50]
05. Зеленi очi [00:04:07]
06. Янанебiбув [00:03:14]
07. Без бою [00:04:17]
08. Вiдчуваю (версiя-2) [00:03:55]
09. Лелеки [00:04:03]
10. Друг (ч.2) [00:04:03]
11. Майже весна [00:04:09]
12. Там, де нас нема [00:03:26]
13. Поїзд 'чужа любов' [00:03:56]
14. Той день [00:03:54]
15. Вiдпусти [00:03:48]
16. Дiвчина з iншого життя [00:03:38]
17. Вулиця [00:04:46]
18. Не питай [00:02:35]
19. 911 (тихий океан) [00:03:37]
20. Вона пiдiйшла до вiкна [00:04:31]
Продолжительность: 01:16:03

Лог создания рипа

Exact Audio Copy V1.0 beta 3 from 29. August 2011
EAC extraction logfile from 17. July 2014, 9:33
Океан Ельзи / Вибране...
Used drive : ATAPI iHAS124 B Adapter: 4 ID: 0
Read mode : Secure
Utilize accurate stream : Yes
Defeat audio cache : Yes
Make use of C2 pointers : No
Read offset correction : 6
Overread into Lead-In and Lead-Out : No
Fill up missing offset samples with silence : Yes
Delete leading and trailing silent blocks : No
Null samples used in CRC calculations : Yes
Used interface : Native Win32 interface for Win NT & 2000
Used output format : Internal WAV Routines
Sample format : 44.100 Hz; 16 Bit; Stereo
TOC of the extracted CD
Track | Start | Length | Start sector | End sector
---------------------------------------------------------
1 | 0:00.00 | 3:08.40 | 0 | 14139
2 | 3:08.40 | 3:57.52 | 14140 | 31966
3 | 7:06.17 | 2:54.49 | 31967 | 45065
4 | 10:00.66 | 3:50.09 | 45066 | 62324
5 | 13:51.00 | 4:07.67 | 62325 | 80916
6 | 17:58.67 | 3:14.68 | 80917 | 95534
7 | 21:13.60 | 4:17.69 | 95535 | 114878
8 | 25:31.54 | 3:55.02 | 114879 | 132505
9 | 29:26.56 | 4:03.67 | 132506 | 150797
10 | 33:30.48 | 4:03.71 | 150798 | 169093
11 | 37:34.44 | 4:09.46 | 169094 | 187814
12 | 41:44.15 | 3:26.70 | 187815 | 203334
13 | 45:11.10 | 3:56.49 | 203335 | 221083
14 | 49:07.59 | 3:54.59 | 221084 | 238692
15 | 53:02.43 | 3:48.11 | 238693 | 255803
16 | 56:50.54 | 3:38.14 | 255804 | 272167
17 | 60:28.68 | 4:46.53 | 272168 | 293670
18 | 65:15.46 | 2:35.49 | 293671 | 305344
19 | 67:51.20 | 3:37.16 | 305345 | 321635
20 | 71:28.36 | 4:31.50 | 321636 | 342010
Range status and errors
Selected range
Filename I:\Українська музика\Океан Ельзи - Дискографія 1998-2014 - lossless\Збірки\2007 - Вибране\Океан Ельзи - 2007 - Вибране....wav
Peak level 100.0 %
Extraction speed 7.0 X
Range quality 100.0 %
Test CRC 781D7FC7
Copy CRC 781D7FC7
Copy OK
No errors occurred
AccurateRip summary
Track 1 cannot be verified as accurate (confidence 1) [73529042], AccurateRip returned [7270A31D] (AR v2)
Track 2 cannot be verified as accurate (confidence 1) [BA73C061], AccurateRip returned [6B8179C3] (AR v2)
Track 3 cannot be verified as accurate (confidence 1) [A3D0C5F9], AccurateRip returned [20C29BBB] (AR v2)
Track 4 cannot be verified as accurate (confidence 1) [38388B30], AccurateRip returned [2D793507] (AR v2)
Track 5 cannot be verified as accurate (confidence 1) [7D75C079], AccurateRip returned [D737F832] (AR v2)
Track 6 cannot be verified as accurate (confidence 1) [6707D286], AccurateRip returned [51F9CDD7] (AR v2)
Track 7 cannot be verified as accurate (confidence 1) [CD53B6F6], AccurateRip returned [88D9096C] (AR v2)
Track 8 cannot be verified as accurate (confidence 1) [7CC36906], AccurateRip returned [BBA0E32A] (AR v2)
Track 9 cannot be verified as accurate (confidence 1) [225EA0C2], AccurateRip returned [C79FCE66] (AR v2)
Track 10 cannot be verified as accurate (confidence 1) [403C505D], AccurateRip returned [B2B6F675] (AR v2)
Track 11 cannot be verified as accurate (confidence 1) [F340017A], AccurateRip returned [C56C316D] (AR v2)
Track 12 cannot be verified as accurate (confidence 1) [161104C5], AccurateRip returned [3EF80E80] (AR v2)
Track 13 cannot be verified as accurate (confidence 1) [19159B03], AccurateRip returned [F83E9CC6] (AR v2)
Track 14 cannot be verified as accurate (confidence 1) [843BF484], AccurateRip returned [46E8C65A] (AR v2)
Track 15 cannot be verified as accurate (confidence 1) [723A434A], AccurateRip returned [09A9D104] (AR v2)
Track 16 cannot be verified as accurate (confidence 1) [36F93B25], AccurateRip returned [037DE6FF] (AR v2)
Track 17 cannot be verified as accurate (confidence 1) [728F1C4A], AccurateRip returned [4457E0D8] (AR v2)
Track 18 cannot be verified as accurate (confidence 1) [EDAD83E5], AccurateRip returned [F6202FFE] (AR v2)
Track 19 cannot be verified as accurate (confidence 1) [EB9568EE], AccurateRip returned [774E3C08] (AR v2)
Track 20 cannot be verified as accurate (confidence 1) [9A664CFB], AccurateRip returned [BA9408A7] (AR v2)
No tracks could be verified as accurate
You may have a different pressing from the one(s) in the database
End of status report
---- CUETools DB Plugin V2.1.3
[CTDB TOCID: tYhA5UaCz8K6FqRlg4RvesN1iDc-] found, Submit result: tYhA5UaCz8K6FqRlg4RvesN1iDc- has been uploaded
[10a4275b] (1/1) Differs in 1616 samples @02:51:40,04:30:17,13:06:35,21:35:06,22:06:13,25:10:42,28:59:54-28:59:55,43:44:11,67:32:28,67:32:45,70:13:39,70:37:49,70:40:34,70:42:31,72:17:01-72:17:02,72:26:29,72:52:56,72:54:50,73:02:33,73:04:54,73:12:73,73:16:02,73:16:71,73:17:37,73:28:47,73:30:04,73:31:09,73:31:35,73:34:59,73:36:01,73:54:25,74:02:43,74:06:63-74:06:64,74:08:21-74:08:22,74:08:43,74:08:63-74:08:64,74:09:12,74:09:74,74:10:22,74:11:09,74:11:31,74:11:54,74:12:22-74:12:25,74:13:11,74:14:21-74:14:22,74:15:51-74:15:54,74:16:59-74:16:60,74:17:12,74:17:31,74:18:43-74:18:44,74:19:10-74:19:11,74:27:33,75:09:35,75:18:11,75:18:55,75:19:22-75:19:23,75:25:05,75:36:30,75:46:35,75:53:74
You can use CUETools to repair this rip.
==== Log checksum 1EE82D78E19985AEE3B919674614826E02CFC2886C8330E8B2DF1595EE1874DC ====

2010 - Океан Ельзи: The Best Of | Песни высшей пробы

1. Я так хочу... (4:41)
2. Все буде добре (3:10)
3. Без бою (4:21)
4. Майже весна (4:12)
5. Вставай (2:54)
6. Той день (3:58)
7. Більше для нас (3:30)
8. Хочу напитись тобою (3:41)
9. Вище неба (3:59)
10. Для тебе (3:53)
11. 911 (3:29)
12. Коли тебе нема (3:18)
13. Онлайн (3:52)
14. Зелені очі (4:08)
15. Відчуваю (4:16)
16. Кішка (3:51)
17. Сосни (4:31)
18. Як довго (3:02)
19. Коко Шанель (3:55)
20. Там, де нас нема (3:30)
21. Не питай (2:37)
Продолжительность: 01:18:31

Лог создания рипа

Exact Audio Copy V1.0 beta 3 from 29. August 2011
EAC extraction logfile from 17. July 2014, 10:19
Океан Ельзи / The Best Of
Used drive : ATAPI iHAS124 B Adapter: 4 ID: 0
Read mode : Secure
Utilize accurate stream : Yes
Defeat audio cache : Yes
Make use of C2 pointers : No
Read offset correction : 6
Overread into Lead-In and Lead-Out : No
Fill up missing offset samples with silence : Yes
Delete leading and trailing silent blocks : No
Null samples used in CRC calculations : Yes
Used interface : Native Win32 interface for Win NT & 2000
Used output format : Internal WAV Routines
Sample format : 44.100 Hz; 16 Bit; Stereo
TOC of the extracted CD
Track | Start | Length | Start sector | End sector
---------------------------------------------------------
1 | 0:00.00 | 4:41.40 | 0 | 21114
2 | 4:41.40 | 3:08.37 | 21115 | 35251
3 | 7:50.02 | 4:18.54 | 35252 | 54655
4 | 12:08.56 | 4:09.50 | 54656 | 73380
5 | 16:18.31 | 2:54.41 | 73381 | 86471
6 | 19:12.72 | 3:55.13 | 86472 | 104109
7 | 23:08.10 | 3:30.08 | 104110 | 119867
8 | 26:38.18 | 3:40.38 | 119868 | 136405
9 | 30:18.56 | 3:58.10 | 136406 | 154265
10 | 34:16.66 | 3:53.34 | 154266 | 171774
11 | 38:10.25 | 3:27.08 | 171775 | 187307
12 | 41:37.33 | 3:14.03 | 187308 | 201860
13 | 44:51.36 | 3:52.20 | 201861 | 219280
14 | 48:43.56 | 4:07.53 | 219281 | 237858
15 | 52:51.34 | 4:15.11 | 237859 | 256994
16 | 57:06.45 | 3:49.23 | 256995 | 274192
17 | 60:55.68 | 4:27.69 | 274193 | 294286
18 | 65:23.62 | 3:00.68 | 294287 | 307854
19 | 68:24.55 | 3:55.63 | 307855 | 325542
20 | 72:20.43 | 3:27.33 | 325543 | 341100
21 | 75:48.01 | 2:37.36 | 341101 | 352911
Range status and errors
Selected range
Filename I:\Українська музика\Океан Ельзи - Дискографія 1998-2014 - lossless\Збірки\2010 - The Best Of\Океан Ельзи - 2010 - The Best Of.wav
Peak level 93.2 %
Extraction speed 7.0 X
Range quality 100.0 %
Test CRC F79B7820
Copy CRC F79B7820
Copy OK
No errors occurred
AccurateRip summary
Track 1 accurately ripped (confidence 2) [0280FBB6] (AR v2)
Track 2 accurately ripped (confidence 2) [ED9BD226] (AR v2)
Track 3 accurately ripped (confidence 2) [2CBFB8A6] (AR v2)
Track 4 accurately ripped (confidence 2) [464019EA] (AR v2)
Track 5 accurately ripped (confidence 2) [25F2535D] (AR v2)
Track 6 accurately ripped (confidence 2) [F4EEF66B] (AR v2)
Track 7 accurately ripped (confidence 2) [D95FEACF] (AR v2)
Track 8 accurately ripped (confidence 2) [CAA0834F] (AR v2)
Track 9 accurately ripped (confidence 2) [64151D4E] (AR v2)
Track 10 accurately ripped (confidence 2) [FC7AD7CF] (AR v2)
Track 11 accurately ripped (confidence 2) [E138B404] (AR v2)
Track 12 accurately ripped (confidence 2) [BFA171B3] (AR v2)
Track 13 accurately ripped (confidence 2) [AA1E25E8] (AR v2)
Track 14 accurately ripped (confidence 2) [3F92DCB6] (AR v2)
Track 15 accurately ripped (confidence 2) [C0124BBD] (AR v2)
Track 16 accurately ripped (confidence 2) [32EA5894] (AR v2)
Track 17 accurately ripped (confidence 2) [DC873A68] (AR v2)
Track 18 accurately ripped (confidence 2) [08A2A653] (AR v2)
Track 19 accurately ripped (confidence 2) [C47A0C8E] (AR v2)
Track 20 accurately ripped (confidence 2) [425FC3D7] (AR v2)
Track 21 accurately ripped (confidence 2) [562792EF] (AR v2)
All tracks accurately ripped
End of status report
---- CUETools DB Plugin V2.1.3
[CTDB TOCID: vOBqvtPu7XfTF5uDlJ8e2gqlmlI-] found, Submit result: vOBqvtPu7XfTF5uDlJ8e2gqlmlI- has been confirmed
[af3eeb67] (3/3) Accurately ripped
==== Log checksum 748B18AEE07542895E16C8A6341EBE6DB727D123CBCBBD3380A54837425AF03F ====

2014 - Найкраще

CD1

1.1 Там Де Нас Нема 3:35
1.2 Ластiвка З Твого Мiста 3:09
1.3 Той День 4:00
1.4 Мало Менi 5:08
1.5 Сосни 4:33
1.6 Вiдпусти 3:54
1.7 911 3:29
1.8 Я До Тебе 4:51
1.9 Друг 4:06
1.10 Ти Собi Сама 3:51
1.11 Квiтка 4:17
1.12 Вставай 2:56
1.13 Isn’t It Сон 3:42
1.14 Коко Шанель 3:57
1.15 Кiшка 3:53
1.16 Дiвчина (з iншого життя) 3:40
1.17 Для Тебе 3:51

CD2

2.1 Майже весна 4:14
2.2 Холодно 4:34
2.3 Вище неба 4:01
2.4 Без бою 4:21
2.5 Вiдчуваю 4:18
2.6 Не питай 2:39
2.7 Зеленi очi 4:10
2.8 Я їду додому 2:01
2.9 Все буде добре 3:12
2.10 Я так хочу 4:43
2.11 Бiльше для Нас 3:32
2.12 Dolce Vita 5:22
2.13 Rendez-Vous 4:15
2.14 Стрiляй 4:53
2.15 Обiйми 3:47
2.16 Джульєта 4:42
2.17 На Небi 3:44
Продолжительность: 2:15:34

Лог создания рипа CD1

Exact Audio Copy V1.0 beta 3 from 29. August 2011
EAC extraction logfile from 11. July 2014, 19:12
Океан Ельзи / Найкраще
Used drive  : ATAPI   iHAS124   B
Adapter: 4  ID: 0
Read mode               : Secure
Utilize accurate stream : Yes
Defeat audio cache      : Yes
Make use of C2 pointers : No
Read offset correction                      : 6
Overread into Lead-In and Lead-Out          : No
Fill up missing offset samples with silence : Yes
Delete leading and trailing silent blocks   : No
Null samples used in CRC calculations       : Yes
Used interface                              : Native Win32 interface for Win NT & 2000
Used output format : Internal WAV Routines
Sample format      : 44.100 Hz; 16 Bit; Stereo
TOC of the extracted CD
Track |   Start  |  Length  | Start sector | End sector    ---------------------------------------------------------
  1  |  0:00.00 |  3:35.01 |         0    |    16125
  2  |  3:35.01 |  3:09.12 |     16126    |    30312
  3  |  6:44.13 |  4:00.32 |     30313    |    48344
  4  | 10:44.45 |  5:08.30 |     48345    |    71474
  5  | 15:53.00 |  4:33.54 |     71475    |    92003
  6  | 20:26.54 |  3:54.34 |     92004    |   109587
  7  | 24:21.13 |  3:29.42 |    109588    |   125304
  8  | 27:50.55 |  4:51.09 |    125305    |   147138
  9  | 32:41.64 |  4:06.07 |    147139    |   165595
10  | 36:47.71 |  3:51.27 |    165596    |   182947
11  | 40:39.23 |  4:17.01 |    182948    |   202223
12  | 44:56.24 |  2:56.48 |    202224    |   215471
13  | 47:52.72 |  3:42.03 |    215472    |   232124
14  | 51:35.00 |  3:57.51 |    232125    |   249950
15  | 55:32.51 |  3:53.05 |    249951    |   267430
16  | 59:25.56 |  3:40.54 |    267431    |   283984
17  | 63:06.35 |  3:51.55 |    283985    |   301364
Range status and errors
Selected range
Filename I:\Українська музика\Океан Ельзи - Найкраще (2014)\Частина1\Океан Ельзи - Найкраще (2014) CD1.wav
Peak level 98.6 %
Extraction speed 2.0 X
Range quality 99.9 %
Test CRC 98B39260
Copy CRC 98B39260     Copy OK
No errors occurred
AccurateRip summary
Track  1  not present in database
Track  2  not present in database
Track  3  not present in database
Track  4  not present in database
Track  5  not present in database
Track  6  not present in database
Track  7  not present in database
Track  8  not present in database
Track  9  not present in database
Track 10  not present in database
Track 11  not present in database
Track 12  not present in database
Track 13  not present in database
Track 14  not present in database
Track 15  not present in database
Track 16  not present in database
Track 17  not present in database
None of the tracks are present in the AccurateRip database
End of status report
---- CUETools DB Plugin V2.1.3
[CTDB TOCID: pg4UNb.HvCswG202dwRfHQhYQsI-] disk not present in database, Submit result: pg4UNb.HvCswG202dwRfHQhYQsI- has been uploaded
==== Log checksum F14CE2C7F7099F51D20435239135021C7A0E25E1D1FF97600AF438B5F7694F6E ====

Лог создания рипа CD2

Exact Audio Copy V1.0 beta 3 from 29. August 2011
EAC extraction logfile from 11. July 2014, 20:51
Океан Ельзи / Найкраще
Used drive  : ATAPI   iHAS124   B   Adapter: 4  ID: 0
Read mode               : Secure
Utilize accurate stream : Yes
Defeat audio cache      : Yes
Make use of C2 pointers : No
Read offset correction                      : 6
Overread into Lead-In and Lead-Out          : No
Fill up missing offset samples with silence : Yes
Delete leading and trailing silent blocks   : No
Null samples used in CRC calculations       : Yes
Used interface                              : Native Win32 interface for Win NT & 2000
Used output format : Internal WAV Routines
Sample format      : 44.100 Hz; 16 Bit; Stereo
TOC of the extracted CD
Track |   Start  |  Length  | Start sector | End sector
   ---------------------------------------------------------
   1  |  0:00.00 |  4:14.43 |         0    |    19092
2  |  4:14.43 |  4:34.12 |     19093    |    39654
3  |  8:48.55 |  4:01.19 |     39655    |    57748
4  | 12:49.74 |  4:21.71 |     57749    |    77394
5  | 17:11.70 |  4:18.08 |     77395    |    96752
6  | 21:30.03 |  2:39.32 |     96753    |   108709
7  | 24:09.35 |  4:10.20 |    108710    |   127479
8  | 28:19.55 |  2:01.24 |    127480    |   136578
9  | 30:21.04 |  3:12.59 |    136579    |   151037
10  | 33:33.63 |  4:43.53 |    151038    |   172315
11  | 38:17.41 |  3:32.07 |    172316    |   188222
12  | 41:49.48 |  5:22.55 |    188223    |   212427
13  | 47:12.28 |  4:15.38 |    212428    |   231590
14  | 51:27.66 |  4:53.37 |    231591    |   253602
15  | 56:21.28 |  3:47.69 |    253603    |   270696
16  | 60:09.22 |  4:42.03 |    270697    |   291849
17  | 64:51.25 |  3:44.50 |    291850    |   308699
Range status and errors
Selected range
Filename I:\Українська музика\Океан Ельзи - Найкраще (2014)\Частина2\Океан Ельзи - Найкраще (2014) CD2.wav
Peak level 100.0 %
Extraction speed 2.0 X
Range quality 100.0 %
Test CRC 45CAE56F
Copy CRC 45CAE56F
Copy OK
No errors occurred
AccurateRip summary
Track  1  not present in database
Track  2  not present in database
Track  3  not present in database
Track  4  not present in database
Track  5  not present in database
Track  6  not present in database
Track  7  not present in database
Track  8  not present in database
Track  9  not present in database
Track 10  not present in database
Track 11  not present in database
Track 12  not present in database
Track 13  not present in database
Track 14  not present in database
Track 15  not present in database
Track 16  not present in database
Track 17  not present in database
None of the tracks are present in the AccurateRip database
End of status report
---- CUETools DB Plugin V2.1.3
[CTDB TOCID: jD7YeiFJ1xUsLRRnTIaORtRAlgA-] disk not present in database, Submit result: jD7YeiFJ1xUsLRRnTIaORtRAlgA- has been uploaded
==== Log checksum 745DC13461FABFC0E0DAA42FEEF79D576D25D35FAA077928070A96721F769E4B ====
-Святослав Вакарчук

2008 - Вночi

01. Ой, поперед мене гори синi [00:04:37]
02. Не йди [00:05:16]
03. Бути з тобою [00:03:51]
04. Колискова [00:02:21]
05. Пiзно вночi [00:03:53]
06. Там, де лiто [00:03:46]
07. Дзвони [00:04:22]
08. Не опускай свої очi [00:03:33]
09. Чайка [00:03:49]
10. Така, як ти [00:03:48]
11. Wherever You Are (Bonus Track) [00:04:10]
Продолжительность: 00:43:31

Лог создания рипа

Exact Audio Copy V1.0 beta 3 from 29. August 2011
EAC extraction logfile from 17. July 2014, 13:13
Святослав Вакарчук / Вночі
Used drive : ATAPI iHAS124 B Adapter: 4 ID: 0
Read mode : Secure
Utilize accurate stream : Yes
Defeat audio cache : Yes
Make use of C2 pointers : No
Read offset correction : 6
Overread into Lead-In and Lead-Out : No
Fill up missing offset samples with silence : Yes
Delete leading and trailing silent blocks : No
Null samples used in CRC calculations : Yes
Used interface : Native Win32 interface for Win NT & 2000
Used output format : Internal WAV Routines
Sample format : 44.100 Hz; 16 Bit; Stereo
TOC of the extracted CD
Track | Start | Length | Start sector | End sector
---------------------------------------------------------
1 | 0:00.00 | 4:37.68 | 0 | 20842
2 | 4:37.68 | 5:16.70 | 20843 | 44612
3 | 9:54.63 | 3:51.56 | 44613 | 61993
4 | 13:46.44 | 2:21.01 | 61994 | 72569
5 | 16:07.45 | 3:53.28 | 72570 | 90072
6 | 20:00.73 | 3:46.08 | 90073 | 107030
7 | 23:47.06 | 4:22.19 | 107031 | 126699
8 | 28:09.25 | 3:33.26 | 126700 | 142700
9 | 31:42.51 | 3:49.47 | 142701 | 159922
10 | 35:32.23 | 3:48.54 | 159923 | 177076
11 | 39:21.02 | 4:10.69 | 177077 | 195895
Range status and errors
Selected range
Filename I:\Українська музика\Океан Ельзи - Дискографія 1998-2014 - lossless\Святослав Вакарчук\2008 - Вночі\Святослав Вакарчук - 2008 - Вночі.wav
Peak level 97.7 %
Extraction speed 1.7 X
Range quality 100.0 %
Test CRC 48E3933F
Copy CRC 48E3933F
Copy OK
No errors occurred
AccurateRip summary
Track 1 accurately ripped (confidence 5) [7067CB6D] (AR v2)
Track 2 accurately ripped (confidence 5) [4FF51026] (AR v2)
Track 3 accurately ripped (confidence 5) [75418732] (AR v2)
Track 4 accurately ripped (confidence 5) [5BA546F2] (AR v2)
Track 5 accurately ripped (confidence 5) [6240A880] (AR v2)
Track 6 accurately ripped (confidence 5) [A0052886] (AR v2)
Track 7 accurately ripped (confidence 5) [3A126912] (AR v2)
Track 8 accurately ripped (confidence 5) [8E1FD015] (AR v2)
Track 9 accurately ripped (confidence 5) [5177754E] (AR v2)
Track 10 accurately ripped (confidence 5) [5E06E2B4] (AR v2)
Track 11 accurately ripped (confidence 5) [92C559D6] (AR v2)
All tracks accurately ripped
End of status report
---- CUETools DB Plugin V2.1.3
[CTDB TOCID: iPOgjwvkwcxIopXaG2FJra9QRmQ-] found, Submit result: iPOgjwvkwcxIopXaG2FJra9QRmQ- has been confirmed
[2b3841ac] (10/10) Accurately ripped
==== Log checksum 764E7AE7B30D166C1EEC9BA391DE2CB3F6E6EE56086E1B6F8367104656B8F650 ====

2012 - Брюссель

01. Airplane [00:03:18]
02. Адреналін [00:06:39]
03. Come To Me Baby [00:05:50]
04. Дощ [00:06:53]
05. Дай Мені Чистої Води [00:07:16]
06. Заплети (у свої коси ніч) [00:06:19]
07. Не Плач [00:09:24]
08. Зелений Чай [00:10:04]
09. Цунамі [00:07:44]
10. В Останній Момент [00:05:12]
11. Моя Планета [00:07:48]
12. Де Я [00:08:18]
Продолжительность: 00:44:38

Лог создания рипа

Exact Audio Copy V1.0 beta 3 from 29. August 2011
EAC extraction logfile from 17. July 2014, 12:19
Святослав Вакарчук / Брюссель
Used drive : ATAPI iHAS124 B Adapter: 4 ID: 0
Read mode : Secure
Utilize accurate stream : Yes
Defeat audio cache : Yes
Make use of C2 pointers : No
Read offset correction : 6
Overread into Lead-In and Lead-Out : No
Fill up missing offset samples with silence : Yes
Delete leading and trailing silent blocks : No
Null samples used in CRC calculations : Yes
Used interface : Native Win32 interface for Win NT & 2000
Used output format : Internal WAV Routines
Sample format : 44.100 Hz; 16 Bit; Stereo
TOC of the extracted CD
Track | Start | Length | Start sector | End sector
---------------------------------------------------------
1 | 0:00.00 | 3:20.39 | 0 | 15038
2 | 3:20.39 | 2:56.34 | 15039 | 28272
3 | 6:16.73 | 3:27.61 | 28273 | 43858
4 | 9:44.59 | 3:39.11 | 43859 | 60294
5 | 13:23.70 | 3:10.71 | 60295 | 74615
6 | 16:34.66 | 4:43.23 | 74616 | 95863
7 | 21:18.14 | 5:03.11 | 95864 | 118599
8 | 26:21.25 | 3:53.15 | 118600 | 136089
9 | 30:14.40 | 2:37.31 | 136090 | 147895
10 | 32:51.71 | 3:55.10 | 147896 | 165530
11 | 36:47.06 | 4:10.08 | 165531 | 184288
12 | 40:57.14 | 3:41.12 | 184289 | 200875
Range status and errors
Selected range
Filename I:\Українська музика\Океан Ельзи - Дискографія 1998-2014 - lossless\Святослав Вакарчук\2012 - Брюссель\Святослав Вакарчук - 2012 - Брюссель.wav
Peak level 100.0 %
Extraction speed 5.5 X
Range quality 100.0 %
Test CRC 5ECD2D14
Copy CRC 5ECD2D14
Copy OK
No errors occurred
AccurateRip summary
Track 1 accurately ripped (confidence 4) [CAE2AB63] (AR v2)
Track 2 accurately ripped (confidence 4) [AA7C6D9C] (AR v2)
Track 3 accurately ripped (confidence 4) [51DC19AA] (AR v2)
Track 4 accurately ripped (confidence 4) [645ED92F] (AR v2)
Track 5 accurately ripped (confidence 4) [CBB75936] (AR v2)
Track 6 accurately ripped (confidence 4) [F43B7AAF] (AR v2)
Track 7 accurately ripped (confidence 4) [104FE571] (AR v2)
Track 8 accurately ripped (confidence 4) [36ADB5CA] (AR v2)
Track 9 accurately ripped (confidence 4) [5D7C1CD8] (AR v2)
Track 10 accurately ripped (confidence 4) [8869BEC4] (AR v2)
Track 11 accurately ripped (confidence 4) [64437217] (AR v2)
Track 12 accurately ripped (confidence 4) [7C2CE653] (AR v2)
All tracks accurately ripped
End of status report
---- CUETools DB Plugin V2.1.3
[CTDB TOCID: gek6zLC974tYwEBLgAzcXfGNgDc-] found, Submit result: gek6zLC974tYwEBLgAzcXfGNgDc- has been confirmed
[13a0f9dd] (6/6) Accurately ripped
==== Log checksum 479FE3922189FA9F13CD888E4E2B8533E7FB5286D68268FF81280AB8EAD39BFA ====
-
[Профиль] [ЛС]
Кто просматривает тему:

Форум Тема Автор Размер
Rock (Rock)Океан Ельзи - Найкраще (2014) 2CD [FLAC(image+cue), Lossless] sergej644 912 MB
Показать сообщения:    

Текущее время: Сегодня 04:17

Часовой пояс: GMT



Вы не можете начинать темы
Вы не можете отвечать на сообщения
Вы не можете редактировать свои сообщения
Вы не можете удалять свои сообщения
Вы не можете голосовать в опросах
Вы не можете прикреплять файлы к сообщениям
Вы не можете скачивать файлы