Океаны / Oceans (Жак Перрен, Жак Клюзо / Jacques Perrin, Jacques Cluzaud) [2009, Документальный, BDRip 720p]

 
Автор Сообщение

TorrentFilm ®

Пол:

Стаж: 2 года

Сообщений: 7741



Награды: Нет

Торрент-статистика

Создавать темы 12-Июл-2015 00:07

[Цитировать]

Океаны / Oceans Год выпуска: 2009
Страна: Франция, Швейцария, Испания, США, ОАЭ
Жанр: Документальный
Продолжительность: 01:43:51
Перевод: Профессиональный (дублированный)
Доп. инфо о переводе: текст читает Олег Басилашвили
Русские субтитры: нет
Режиссер: Жак Перрен, Жак Клюзо / Jacques Perrin, Jacques Cluzaud
Описание: Мир вечного движения, мир, где толща воды перемещается в доли секунды, превращает первоначальные планы в хаос. Мир, который равнодушно взирает на суету. Люди уйдут, море же останется навсегда. Почти три четверти земной поверхности покрыты водой. «Океаны» предлагают зрителю заглянуть в волшебный подводный мир, все еще остающимся загадкой для человека. Съёмки документальной ленты проходили в 54 различных уголках планеты и заняли более четырёх лет.


IMDb 7.8
Кинопоиск 8.4

Исходник: BDRemux 1080p
Тип релиза: BDRip 720p
Контейнер: MKV
Видео: MPEG-4 AVC, 1280x536 (2,4:1), 5500 Кбит/с, 23.976 fps, 0.334 bit/pixel
Аудио: Russian, AC3, 48kHz, 6 ch, 448 kbps

Информация о фильме

* Картина, не имеющая аналогов, от создателя «Птиц» и «Микрокосмоса».
* Бюджет фильма — 50 млн евро, в съёмках участвовало 15 кинооператоров, которые отсняли более 500 часов пленки. На подготовку съёмок ушло более двух лет, и ещё 3,5 года — на сами съёмки.
* Дебютная касса «Океанов» заняла 3-е место за всю историю американского проката среди документальных проектов.

x264 log

...last pass...
x264.exe: --pass 2 --bitrate 5500 --preset veryslow --level 4.1 --ref 8 --merange 32 --bframes 9 --direct spatial --psy-rd 1.05:0.15 --subme 9 --vbv-bufsize 14000 --vbv-maxrate 14000 --partitions p8x8,b8x8,i4x4,i8x8 --sar 1:1 --stats "F:\Temp\0062.log" --output "F:\Temp\0062.264" "F:\Temp\0062.avs"
avs [info]: 1280x536p 1:1 @ 2500000/104271 fps (cfr)
x264 [info]: using SAR=1/1
x264 [info]: using cpu capabilities: MMX2 SSE2Fast SSSE3 SSE4.2 AVX
x264 [info]: profile High, level 4.1
x264 [info]: frame I:720 Avg QP:18.26 size:111183
x264 [info]: frame P:38001 Avg QP:20.61 size: 44792
x264 [info]: frame B:110678 Avg QP:22.37 size: 22594
x264 [info]: consecutive B-frames: 2.9% 7.7% 10.7% 26.0% 12.9% 36.0% 1.8% 0.8% 0.5% 0.6%
x264 [info]: mb I I16..4: 10.4% 74.6% 15.0%
x264 [info]: mb P I16..4: 2.8% 16.1% 2.2% P16..4: 37.5% 23.4% 12.9% 0.0% 0.0% skip: 5.0%
x264 [info]: mb B I16..4: 0.3% 3.6% 0.5% B16..8: 44.3% 13.5% 4.2% direct: 9.7% skip:23.8% L0:43.9% L1:42.8% BI:13.3%
x264 [info]: 8x8 transform intra:78.1% inter:71.0%
x264 [info]: coded y,uvDC,uvAC intra: 87.0% 88.2% 65.4% inter: 43.3% 43.3% 10.6%
x264 [info]: i16 v,h,dc,p: 70% 14% 4% 12%
x264 [info]: i8 v,h,dc,ddl,ddr,vr,hd,vl,hu: 6% 14% 6% 9% 14% 10% 17% 8% 16%
x264 [info]: i4 v,h,dc,ddl,ddr,vr,hd,vl,hu: 5% 18% 3% 7% 13% 9% 18% 8% 19%
x264 [info]: i8c dc,h,v,p: 41% 32% 12% 15%
x264 [info]: Weighted P-Frames: Y:10.9% UV:5.3%
x264 [info]: ref P L0: 43.5% 13.9% 16.8% 8.0% 5.5% 5.3% 3.9% 2.5% 0.6% 0.0%
x264 [info]: ref B L0: 72.9% 11.7% 6.5% 3.4% 2.7% 2.1% 0.7%
x264 [info]: ref B L1: 93.4% 6.6%
x264 [info]: kb/s:5498.55
x264 [total]: encoded 149399 frames, 9.03 fps, 5498.55 kb/s

MediaInfo

GeneralUnique ID : 225914610030647996133869004930770994020 (0xA9F5923C57C5C79AA2FA0733131F0364)Complete name : D:\Видео\Флора и фауна\Oceans BDRip-720p.2009.mkvFormat : MatroskaFormat version : Version 2File size : 4.31 GiBDuration : 1h 43mnOverall bit rate : 5 948 KbpsEncoded date : UTC 2015-07-08 14:15:35Writing application : mkvmerge v7.8.0 ('River Man') 32bit built on Apr 3 2015 12:11:22Writing library : libebml v1.3.1 + libmatroska v1.4.2
VideoID : 1Format : AVCFormat/Info : Advanced Video CodecFormat profile : High@L4.1Format settings, CABAC : YesFormat settings, ReFrames : 8 framesCodec ID : V_MPEG4/ISO/AVCDuration : 1h 43mnBit rate : 5 500 KbpsWidth : 1 280 pixelsHeight : 536 pixelsDisplay aspect ratio : 2.40:1Frame rate mode : ConstantFrame rate : 23.976 fpsColor space : YUVChroma subsampling : 4:2:0Bit depth : 8 bitsScan type : ProgressiveBits/(Pixel*Frame) : 0.334Stream size : 3.90 GiB (90%)Title : Автор рипа VicmanWriting library : x264 core 146 r2538 121396cEncoding settings : cabac=1 / ref=8 / deblock=1:0:0 / analyse=0x3:0x113 / me=umh / subme=9 / psy=1 / psy_rd=1.05:0.15 / mixed_ref=1 / me_range=32 / chroma_me=1 / trellis=2 / 8x8dct=1 / cqm=0 / deadzone=21,11 / fast_pskip=1 / chroma_qp_offset=-3 / threads=6 / lookahead_threads=1 / sliced_threads=0 / nr=0 / decimate=1 / interlaced=0 / bluray_compat=0 / constrained_intra=0 / bframes=9 / b_pyramid=2 / b_adapt=2 / b_bias=0 / direct=1 / weightb=1 / open_gop=0 / weightp=2 / keyint=250 / keyint_min=23 / scenecut=40 / intra_refresh=0 / rc_lookahead=60 / rc=2pass / mbtree=1 / bitrate=5500 / ratetol=1.0 / qcomp=0.60 / qpmin=0 / qpmax=69 / qpstep=4 / cplxblur=20.0 / qblur=0.5 / vbv_maxrate=14000 / vbv_bufsize=14000 / nal_hrd=none / filler=0 / ip_ratio=1.40 / aq=1:1.00Default : YesForced : No
AudioID : 2Format : AC-3Format/Info : Audio Coding 3Mode extension : CM (complete main)Format settings, Endianness : BigCodec ID : A_AC3Duration : 1h 43mnBit rate mode : ConstantBit rate : 448 KbpsChannel(s) : 6 channelsChannel positions : Front: L C R, Side: L R, LFESampling rate : 48.0 KHzBit depth : 16 bitsCompression mode : LossyStream size : 333 MiB (8%)Default : YesForced : No

Скриншоты

[Профиль] [ЛС]
Кто просматривает тему:

Форум Тема Автор Размер
Rock (Rock) Океан Ельзи (О.Е., Океан Эльзы) - Избранное (2xCD) - 2013, FLAC (tracks+.cue), lossless sergej644 1.03 GB
Rock (Rock)Океан Ельзи (О.Е.)(Святослав Вакарчук) - Дискография - 19 релизов 1998-2014, [FLAC (image+.cue), lossless] sergej644 6.87 GB
Rock (Rock)Океан Ельзи - Найкраще (2014) 2CD [FLAC(image+cue), Lossless] sergej644 912 MB
Rock (Рок) 6 Океанов - Хронограф - 2016, MP3, 320 kbps достали все 51 MB
BBC BBC: Horizon. Океаны Солнечной системы / Oceans of the Solar System (David Stewart) [2015 г., Документальный, научно-популярный, HDTVRip 720p] skorpionN 1.5 GB
Документальные HD Большое путешествие вглубь океанов: Возвращение / Tortuga - The Incredible Trip of the Sea Turtle (2009) BDRip от -=HD-NET=- sergej644 1.08 GB
Разная литература Виктор Конев | Бермудский треугольник и другие загадки морей и океанов (2014) [FB2, RTF] достали все 23 MB
R.G.TorrentFilm Video Два Океана / Two Oceans (Клаудио Веласкес Рохас / Claudio Velasguez Rojas) [2011, Документальный, флора, фауна, HDTVRip] VО Один 777 1.46 GB
Показать сообщения:    

Текущее время: Сегодня 00:11

Часовой пояс: GMT



Вы не можете начинать темы
Вы не можете отвечать на сообщения
Вы не можете редактировать свои сообщения
Вы не можете удалять свои сообщения
Вы не можете голосовать в опросах
Вы не можете прикреплять файлы к сообщениям
Вы не можете скачивать файлы