Океаны / Oceans (Жак Перрен, Жак Клюзо) [2009, документальный, драма, семейный, BDRip 1080p]

 
Автор Сообщение

TorrentFilm ®

Пол:

Стаж: 2 года

Сообщений: 7741



Награды: Нет

Торрент-статистика

Создавать темы 20-Июн-2015 00:06

[Цитировать]

Океаны / Oceans
слоган «Великое зрелище от великого Создателя»
Год выпуска: 2009
Страна: Франция, Швейцария, Испания, США, ОАЭ
Жанр: документальный, драма, семейный
Продолжительность: 01:43:51
Перевод: Профессиональный (дублированный)
Доп. инфо о переводе: текст читает Олег Басилашвили
Режиссер: Жак Перрен, Жак Клюзо
Описание: Мир вечного движения, мир, где толща воды перемещается в доли секунды, превращает первоначальные планы в хаос. Мир, который равнодушно взирает на суету. Люди уйдут, море же останется навсегда. Почти три четверти земной поверхности покрыты водой. «Океаны» предлагают зрителю заглянуть в волшебный подводный мир, все еще остающимся загадкой для человека.
Съёмки документальной ленты проходили в 54 различных уголках планеты и заняли более четырёх лет.

IMDb 7.8
Кинопоиск 8.459


Тип релиза: BDRip 1080p
Контейнер: MKV
Видео: MPEG-4 AVC 1920x800 10.3 Mbps 23.976fps
Аудио 1: Русский DTS 48000Hz 6ch 1536kbps 16 bits
Аудио 2: Русский Dolby AC3 48000Hz 6ch 448kbps 16 bits
Аудио 3: Французский Dolby AC3 48000Hz 6ch 640kbps 16 bits

MediaInfo

GeneralUnique ID : 242664733621559366994025255055804011797 (0xB68F8716E0F2C4599E5BD535B8031515)Complete name : G:\Документальные фильмы\Oceans.2009.x264.BDRip(1080p).mkvFormat : MatroskaFormat version : Version 1File size : 9.37 GiBDuration : 1h 43mnOverall bit rate : 12.9 MbpsEncoded date : UTC 2010-10-10 06:55:30Writing application : mkvmerge v2.1.0 ('Another Place To Fall') built on Aug 19 2007 13:40:07Writing library : libebml v0.7.7 + libmatroska v0.8.1
VideoID : 1Format : AVCFormat/Info : Advanced Video CodecFormat profile : High@L4.1Format settings, CABAC : YesFormat settings, ReFrames : 5 framesCodec ID : V_MPEG4/ISO/AVCBit rate : 10.3 MbpsWidth : 1 920 pixelsHeight : 800 pixelsDisplay aspect ratio : 2.40:1Frame rate mode : VariableOriginal frame rate : 23.976 fpsColor space : YUVChroma subsampling : 4:2:0Bit depth : 8 bitsScan type : ProgressiveBits/(Pixel*Frame) : 0.280Writing library : x264 core 98 r1629 2e81ce1Encoding settings : cabac=1 / ref=5 / deblock=1:-3:-3 / analyse=0x3:0x113 / me=tesa / subme=10 / psy=1 / psy_rd=1.00:0.00 / mixed_ref=1 / me_range=32 / chroma_me=1 / trellis=2 / 8x8dct=1 / cqm=0 / deadzone=21,11 / fast_pskip=0 / chroma_qp_offset=-2 / threads=6 / sliced_threads=0 / nr=0 / decimate=0 / interlaced=0 / constrained_intra=0 / bframes=16 / b_pyramid=0 / b_adapt=2 / b_bias=0 / direct=3 / weightb=1 / weightp=2 / keyint=600 / keyint_min=1 / scenecut=40 / intra_refresh=0 / rc_lookahead=60 / rc=2pass / mbtree=1 / bitrate=10321 / ratetol=1.0 / qcomp=0.60 / qpmin=10 / qpmax=51 / qpstep=4 / cplxblur=20.0 / qblur=0.5 / vbv_maxrate=50000 / vbv_bufsize=50000 / ip_ratio=1.40 / aq=1:1.00 / nal_hrd=noneLanguage : EnglishDefault : YesForced : No
Audio #1ID : 2Format : DTSFormat/Info : Digital Theater SystemsMode : 16Format settings, Endianness : BigCodec ID : A_DTSDuration : 1h 43mnBit rate mode : ConstantBit rate : 1 509 KbpsChannel count : 6 channelsChannel positions : Front: L C R, Side: L R, LFESampling rate : 48.0 KHzBit depth : 16 bitsCompression mode : LossyStream size : 1.09 GiB (12%)Default : NoForced : No
Audio #2ID : 3Format : AC-3Format/Info : Audio Coding 3Mode extension : CM (complete main)Format settings, Endianness : BigCodec ID : A_AC3Duration : 1h 43mnBit rate mode : ConstantBit rate : 448 KbpsChannel count : 6 channelsChannel positions : Front: L C R, Side: L R, LFESampling rate : 48.0 KHzBit depth : 16 bitsCompression mode : LossyStream size : 333 MiB (3%)Default : NoForced : No
Audio #3ID : 4Format : AC-3Format/Info : Audio Coding 3Mode extension : CM (complete main)Format settings, Endianness : BigCodec ID : A_AC3Duration : 1h 43mnBit rate mode : ConstantBit rate : 640 KbpsChannel count : 6 channelsChannel positions : Front: L C R, Side: L R, LFESampling rate : 48.0 KHzBit depth : 16 bitsCompression mode : LossyStream size : 475 MiB (5%)Default : YesForced : No

Скриншоты

[Профиль] [ЛС]
Кто просматривает тему:

Форум Тема Автор Размер
Rock (Rock) Океан Ельзи (О.Е., Океан Эльзы) - Избранное (2xCD) - 2013, FLAC (tracks+.cue), lossless sergej644 1.03 GB
Rock (Rock)Океан Ельзи (О.Е.)(Святослав Вакарчук) - Дискография - 19 релизов 1998-2014, [FLAC (image+.cue), lossless] sergej644 6.87 GB
Rock (Rock)Океан Ельзи - Найкраще (2014) 2CD [FLAC(image+cue), Lossless] sergej644 912 MB
Rock (Рок) 6 Океанов - Хронограф - 2016, MP3, 320 kbps достали все 51 MB
BBC BBC: Horizon. Океаны Солнечной системы / Oceans of the Solar System (David Stewart) [2015 г., Документальный, научно-популярный, HDTVRip 720p] skorpionN 1.5 GB
Документальные HD Большое путешествие вглубь океанов: Возвращение / Tortuga - The Incredible Trip of the Sea Turtle (2009) BDRip от -=HD-NET=- sergej644 1.08 GB
Разная литература Виктор Конев | Бермудский треугольник и другие загадки морей и океанов (2014) [FB2, RTF] достали все 23 MB
R.G.TorrentFilm Video Два Океана / Two Oceans (Клаудио Веласкес Рохас / Claudio Velasguez Rojas) [2011, Документальный, флора, фауна, HDTVRip] VО Один 777 1.46 GB
Показать сообщения:    

Текущее время: Сегодня 20:39

Часовой пояс: GMT



Вы не можете начинать темы
Вы не можете отвечать на сообщения
Вы не можете редактировать свои сообщения
Вы не можете удалять свои сообщения
Вы не можете голосовать в опросах
Вы не можете прикреплять файлы к сообщениям
Вы не можете скачивать файлы