Ой, мороз, мороз! (2005) DVDRip от ivandubskoj | Лицензия

 
Автор Сообщение

sergej644 ®

Пол:

Стаж: 4 года 11 месяцев

Сообщений: 6046

Откуда: Soviet Union



Награды: Нет

Торрент-статистика

Создавать темы 20-Янв-2015 23:41

[Цитировать]

Информация о фильме
Название: Ой, мороз, мороз!
Год выхода: 2005
Жанр: Комедия
Режиссёр: Николай Щербаков
В ролях: Владимир Епифанцев, Анастасия Задорожная, Роман Мадянов, Виктор Проскурин, Валерий Гаркалин, Борис Клюев, Раиса Рязанова, Ирина Шипова, Галина Данилова, Алексей Зуев, Павел Лысенок, Андрей Перов, Спартак Сумченко, Николай Мачульский, Дмитрий Гольдман, Илья Соколовский, Владимир Павленко, Оксана Лагутина, Ольга Хохлова, Армен Филиппов
О фильме: Иногда, чтобы исправить свою судьбу, полезно сыграть роль другого человека. Жизнь героя этой взрослой сказки действительно зашла в тупик. Он бывший офицер спецназа, отбывающий срок по ложному обвинению. Уже несколько лет подряд в канун Нового года он бежит из колонии, чтобы отомстить. Однако у судьбы свои планы и в этот раз все будет совсем иначе. Роль Деда Мороза, которую по воле случая придется сыграть герою, позволит ему посмотреть на себя со стороны, научит дарить радость другим, и вернет удачу и счастье в его собственную жизнь.

Выпущено: Россия, Продюсерский центр "Утёс"
Продолжительность: 01:35:16
Перевод: Не требуется
Файл
Качество: DVDRip [Исходник: DVD-5]
Видео: XviD, 640x384 (1.667), 959 Кбит/с, 25 кадр/с
Аудио: Русский, MP3, 48000 Гц, 128 Кбит/с, 2 канала (Стерео)

MediaInfo

General
Complete name : Oj.moroz.moroz.2005.745MB.avi
Format : AVI
Format/Info : Audio Video Interleave
File size : 746 MiB
Duration : 1h 35mn
Overall bit rate : 1 096 Kbps
Writing application : VirtualDubMod 1.5.10.3 (build 2550/release)
Writing library : VirtualDubMod build 2550/release
Copyright : rip by ivandubskoj
Video
ID : 0
Format : MPEG-4 Visual
Format profile : Advanced Simple@L5
Format settings, BVOP : 2
Format settings, QPel : No
Format settings, GMC : No warppoints
Format settings, Matrix : Custom
Codec ID : XVID
Codec ID/Hint : XviD
Duration : 1h 35mn
Bit rate : 959 Kbps
Width : 640 pixels
Height : 384 pixels
Display aspect ratio : 1.667
Frame rate : 25.000 fps
Color space : YUV
Chroma subsampling : 4:2:0
Bit depth : 8 bits
Scan type : Progressive
Compression mode : Lossy
Bits/(Pixel*Frame) : 0.156
Stream size : 652 MiB (87%)
Writing library : XviD 73
Audio
ID : 1
Format : MPEG Audio
Format version : Version 1
Format profile : Layer 3
Codec ID : 55
Codec ID/Hint : MP3
Duration : 1h 35mn
Bit rate mode : Constant
Bit rate : 128 Kbps
Channel(s) : 2 channels
Sampling rate : 48.0 KHz
Compression mode : Lossy
Stream size : 87.1 MiB (12%)
Alignment : Aligned on interleaves
Interleave, duration : 40 ms (1.00 video frame)
Interleave, preload duration : 504 ms
Writing library : LAME3.99r
Encoding settings : -m s -V 4 -q 0 -lowpass 17 -b 128

Скриншоты

Автор рипа - ivandubskoj
[Профиль] [ЛС]

Создавать темы 06-Авг-2015 22:17 (спустя 6 месяцев 16 дней)

Топик был перенесен из форума Фильмы до 2014 года в форум Фильмы до 2012 года
sergej644
 
Кто просматривает тему:

Показать сообщения:    

Текущее время: Сегодня 20:43

Часовой пояс: GMT



Вы не можете начинать темы
Вы не можете отвечать на сообщения
Вы не можете редактировать свои сообщения
Вы не можете удалять свои сообщения
Вы не можете голосовать в опросах
Вы не можете прикреплять файлы к сообщениям
Вы не можете скачивать файлы