Ой, Ма-моч-ки!.. / Ой, мамочки! [01-12 из 12] (Иван Павлов) [2013-2014, Мелодрама] WEB-DLRip

 
Автор Сообщение

BOSS ®

Пол:

Стаж: 2 года 2 месяца

Сообщений: 3751

Откуда: ODESSA



Награды: 20 (Подробнее)

Top Keeper 1 (Количество: 1) Mega Seeder 4 (Количество: 1) Top Keeper 2 (Количество: 1)
Торрент-статистика

Создавать темы 15-Май-2015 14:27

[Цитировать]

Информация о фильме
Название: Ой, Ма-моч-ки!.. (Ой, мамочки!)
Год выхода: 2013-2014
Жанр: Мелодрама
Режиссер: Иван Павлов
В ролях: Александр Макогон, Вера Полякова, Александра Назарова, Анна Казючиц, Игорь Сигов, Алеся Пуховая, Валентина Гарцуева, Светлана Боровская, Анастасия Орёл, Денис Паршин, Владислав Бархатов, Сергей Власов (IV), Татьяна Чердынцева, Елена Дубровская, Инна Коляда, Яна Касперович, Светлана Аникей, Светлана Зеленковская, Оксана Лесная, Вероника Пляшкевич, Евгения Кульбачная, Екатерина Шуляк
О фильме:
Вера Михайловна работает заведующей отделением патологии в одном из городских родильных домов. Это очень непростая и очень ответственная работа – помогать будущим мамам произвести на свет здоровых и счастливых малышей. Тем более, что мама маме рознь – кто-то из пациенток Веры Михайловны состоит в законном браке и счастливо ждёт прибавления в семействе, кто-то желает родить ребенка несмотря на хрупкое здоровье или сопротивление родных, а кто-то очень одинок и всерьез помышляет об отказе от первенца… У всех будущих мам есть своя история – трогательная и волнительная, радостная или печальная, но обязательно полная надежды.

Страна: Россия, Беларусь
Студия: «Беларусьфильм» и ООО «Студия «Мы» (Россия)
Продолжительность: 12 х ~00:52:00
Перевод: Не требуется
Файл
Кодек: XviD
Качество: WEB-DLRip
Видео: XviD, 1670 Кбит/с, 720х400
Звук: AC3, 2 ch, 192 Кбит/с
Семпл

Инфо-файл

General
Complete name : Oj.mamochki.2013-2014.WEB-DLRip.ExKinoRayOj.mamochki.(01.seriya).2013-2014.WEB-DLRip.ExKinoRay.avi
Format : AVI
Format/Info : Audio Video Interleave
File size : 701 MiB
Duration : 52mn 23s
Overall bit rate : 1 870 Kbps
Writing application : VirtualDubMod 1.5.10.2 (build 2540/release)
Writing library : VirtualDubMod build 2540/release
Video
ID : 0
Format : MPEG-4 Visual
Format profile : Advanced Simple@L5
Format settings, BVOP : 1
Format settings, QPel : No
Format settings, GMC : No warppoints
Format settings, Matrix : Custom
Codec ID : XVID
Codec ID/Hint : XviD
Duration : 52mn 23s
Bit rate : 1 668 Kbps
Width : 720 pixels
Height : 400 pixels
Display aspect ratio : 16:9
Frame rate : 25.000 fps
Color space : YUV
Chroma subsampling : 4:2:0
Bit depth : 8 bits
Scan type : Progressive
Compression mode : Lossy
Bits/(Pixel*Frame) : 0.232
Stream size : 625 MiB (89%)
Writing library : XviD 1.2.1 (UTC 2008-12-04)
Audio
ID : 1
Format : AC-3
Format/Info : Audio Coding 3
Mode extension : CM (complete main)
Format settings, Endianness : Big
Codec ID : 2000
Duration : 52mn 23s
Bit rate mode : Constant
Bit rate : 192 Kbps
Channel(s) : 2 channels
Channel positions : Front: L R
Sampling rate : 48.0 KHz
Bit depth : 16 bits
Compression mode : Lossy
Stream size : 71.9 MiB (10%)
Alignment : Split accross interleaves
Interleave, duration : 40 ms (1.00 video frame)
Interleave, preload duratio : 500 ms

Содержание

01 серия: ЧП
02 серия: Трусишка зайка серенький...
03 серия: Сопромат
04 серия: Буслы прилетели!
05 серия: Трудная работа
06 серия: Пллюс-минус один день
07 серия: Солнце в городе
08 серия: Развод и девичья фамилия
09 серия: Мамин день
10 серия: Единственный мужчина
11 серия: Мать-и-мачеха
12 серия: Елена Прекрасная

Скриншоты


[Профиль] [ЛС]
Кто просматривает тему:

Показать сообщения:    

Текущее время: Сегодня 00:34

Часовой пояс: GMT



Вы не можете начинать темы
Вы не можете отвечать на сообщения
Вы не можете редактировать свои сообщения
Вы не можете удалять свои сообщения
Вы не можете голосовать в опросах
Вы не можете прикреплять файлы к сообщениям
Вы не можете скачивать файлы