Ой, вэй! Мой сын гей! / Oy Vey! My Son Is Gay! (Евгений Афинеевский / Evgenij Afineevskij) [2009, США, Комедия, DVDRip] VO

 
Автор Сообщение

painkiller ®

Стаж: 2 года 3 месяца

Сообщений: 582



Награды: Нет

Торрент-статистика

Создавать темы 16-Авг-2014 01:26

[Цитировать]

Ой, вэй! Мой сын гей! / Oy Vey! My Son Is Gay!
Страна: США
Жанр: Комедия
Год выпуска: 2009
Продолжительность: 01:29:16
Перевод: одноголосый закадровый
Cубтитры: нет
Режиссер: Евгений Афинеевский / Evgenij Afineevskij
В ролях: Кармен Электра, Джон Ллойд Янг, Сол Рубинек, Лэйни Казан, Винсент Пасторе, Брюс Виленч, Джей Родригез, Карен Гордон, Том Фридли, Кент Кимбол
Описание: Ширли и Мартин Хирш каждую пятницу приглашают к себе на ужин очередную «идеальную» еврейскую девушку, в надежде, что их сын Нельсон наконец женится. И вот однажды Нельсон сообщает родителям, что он уже встречается кое с кем и обещает познакомить их со своей половиной на грядущем семейном торжестве. Но вместо сексапильной блондинки, которую готовятся встретить родители, Нельсон приходит на праздник с парнем по имени Анджело. Ширли и Мартин шокированы, но, трезво подумав, решают: если проблему нельзя исправить, следует изменить своей отношение к ней.
Сэмпл: http://multi-up.com/974992
Качество видео: DVDRip
Формат видео: AVI
Видео: 704x400 (1.76:1), 47.950 fps, XviD build 62 ~1513 kbps avg, 0.11 bit/pixel
Аудио: 44.100 kHz, MPEG Layer 3, 2 ch, ~160.00 kbps avg

MediaInfo

Общее
Полное имя : D:\Oy Vey!My Son Is Gay!.avi
Формат : AVI
Формат/Информация : Audio Video Interleave
Профиль формата : OpenDML
Размер файла : 1,06 Гбайт
Продолжительность : 1 ч. 29 м.
Режим общего битрейта : Переменный
Общий поток : 1686 Кбит/сек
Программа кодирования : Lavf55.19.104
Видео
Идентификатор : 0
Формат : MPEG-4 Visual
Профиль формата : Advanced Simple@L5
Параметр BVOP формата : Нет
Параметр QPel формата : Нет
Параметр GMC формата : Без точки перехода
Параметр матрицы формата : Default (H.263)
Идентификатор кодека : XVID
Идентификатор кодека/Подсказка : XviD
Продолжительность : 1 ч. 29 м.
Битрейт : 1505 Кбит/сек
Ширина : 704 пикселя
Высота : 400 пикселей
Соотношение сторон : 16:9
Частота кадров : 47,952 кадров/сек
Частота кадров в оригинале : 23,976 кадра/сек
Цветовое пространство : YUV
Субдискретизация насыщенности : 4:2:0
Битовая глубина : 8 бит
Тип развёртки : Прогрессивная
Метод сжатия : С потерями
Бит/(Пиксели*Кадры) : 0.111
Размер потока : 966 Мбайт (89%)
Библиотека кодирования : XviD 62
Аудио
Идентификатор : 1
Формат : MPEG Audio
Версия формата : Version 1
Профиль формата : Layer 3
Идентификатор кодека : 55
Идентификатор кодека/Подсказка : MP3
Продолжительность : 1 ч. 29 м.
Вид битрейта : Переменный
Битрейт : 160 Кбит/сек
Каналы : 2 канала
Частота : 44,1 КГц
Метод сжатия : С потерями
Задержка видео : 181 мс.
Размер потока : 103 Мбайт (9%)
Выравнивание : Соединение по промежуткам
Продолжительность промежутка : 26 мс. (1,25 видеокадр)

Скриншоты

[Профиль] [ЛС]

Создавать темы 06-Авг-2015 23:10 (спустя 11 месяцев 21 день)

Топик был перенесен из форума Фильмы до 2014 года в форум Фильмы до 2012 года
sergej644
 

Создавать темы 12-Июн-2016 08:48 (спустя 1 год 9 месяцев)

Топик был перенесен из форума Фильмы 2011 года в форум Фильмы 2009 года
Russian Mafia
 
Кто просматривает тему:

Показать сообщения:    

Текущее время: Сегодня 08:56

Часовой пояс: GMT



Вы не можете начинать темы
Вы не можете отвечать на сообщения
Вы не можете редактировать свои сообщения
Вы не можете удалять свои сообщения
Вы не можете голосовать в опросах
Вы не можете прикреплять файлы к сообщениям
Вы не можете скачивать файлы