Оз: Возвращение в Изумрудный Город в 3Д / Legends of Oz: Dorothy's Return 3D (Уилл Финн, Дэн Ст. Пьер / Will Finn, Dan St. Pierre) [2013, Мультфильм, Мюзикл, Семейный, BDrip-AVC] Half OverUnder / Вертикальная анаморфная стереопара

 
Автор Сообщение

BOSS ®

Пол:

Стаж: 2 года 1 месяц

Сообщений: 3735

Откуда: ODESSA



Награды: 20 (Подробнее)

Mega Seeder 1 (Количество: 1) Mega Seeder 2 (Количество: 1) Top Releaser 4 (Количество: 1)
Торрент-статистика

Создавать темы 07-Окт-2015 19:58

[Цитировать]

-Оз: Возвращение в Изумрудный Город
Legends of Oz: Dorothy's Return

Год выпуска: 2013
Страна: США, Индия (Hyde Park Entertainment, Summertime Entertainment)
Жанр: Мультфильм, Мюзикл, Семейный
Продолжительность: 1:31:57
Перевод: Профессиональный дублированный (Лицензия R5)
Режиссеры: Уилл Финн, Дэн Ст. Пьер / Will Finn, Dan St. Pierre-Роли озвучивали (дублировали):

Дороти - Лиа Мишель (Полина Гагарина)
Tugg - Патрик Стюарт
Лев - Джеймс Белуши (Александр Головчанский)
Страшила - Дэн Эйкройд
Tin Man - Келси Грэммер
Фарфоровая принцесса / Мышиная Королева - Меган Хилти
Marshal Mallow - Хью Дэнси
Wiser - Оливер Платт
Glinda - Бернадетт Питерс
The Appraiser / The Jester - Мартин Шорт
Aunt Em - Тейси Адамс
Beaver Foreman - Bryan Adams

также дублировали: Алексей Чумаков, Станислав Дужников, Гарик Харламов, Кристина Асмус, Сергей Чихачев
-Описание: Дороти снова магическим образом переносится в страну Оз, чтобы спасти от беды ее жителей. Но оказывается, что старые друзья Дороти — Страшила, Железный Дровосек и Храбрый Лев — исчезли. Путешествуя по стране в поисках своих друзей, Дороти встречает новых попутчиков — Капитана Зефира, Фарфоровую Принцессу и филина Савву. Дороти должна помочь таким разным героям объединиться, чтобы одолеть нового злодея — шута Джестера, который хочет захватить страну Оз при помощи черной магии.

Знаете ли вы, что...

  • В основе сюжета мультфильма — одноименная книга Роджера С. Баума, правнука Фрэнка Баума, создателя оригинальной истории про волшебника страны Оз.
  • Меган Хилти ранее играла Глинду в мюзикле «Wicked» (Злой), который был основан на историях о стране Оз.
  • Вильгельмов крик можно услышать в фильме, когда низкорослый человечек сбивает китайского солдата.
Премьера: 14 июня 2013 (10 июля 2014)
Релиз на DVD (Россия): 19 августа 2014
Бюджет: $70 000 000
Кассовые сборы: $18 662 027

. .
-Качество: BDRip (by Ash61)
Контейнер: MKV
Формат 3D: Half OverUnder / Вертикальная анаморфная стереопара
Порядок ракурсов: левый ракурс первый
Видео кодек: x264
Аудио кодек: AC3-Видео: AVC / 23,976 fps / 1920х1080p / 10.2 Mbps
Аудио:
#1 - Русский / AC3 / 48 KHz / 5.1 ch / 448 Kbps (Дубляж - R5)
#2 - Английский / AC3 / 48 KHz / 5.1 ch / 640 Kbps (Original - BD 3D)
Субтитры (внешние SRT UTF-8):
#1 - English Full
#2 - English SDH

MediaInfo

General
Unique ID : 177380308520994111658578645919138444043 (0x8572346BF8D8F19799863F14F561F30B)
Complete name : E:\LegendsOfOz.Dorothy'sReturn(2013)3D-halfOU(Ash61)R5\LegendsOfOz.Dorothy'sReturn(2013)3D-halfOU(Ash61)R5.mkv
Format : Matroska
Format version : Version 2
File size : 7.41 GiB
Duration : 1h 31mn
Overall bit rate : 11.5 Mbps
Movie name : Оз: Возвращение в Изумрудный Город / Legends of Oz: Dorothy's Return (2013) 3D
Encoded date : UTC 2014-11-16 18:46:57
Writing application : mkvmerge v5.8.0 ('No Sleep / Pillow') built on Sep 2 2012 15:37:04
Writing library : libebml v1.2.3 + libmatroska v1.3.0
Video
ID : 1
Format : AVC
Format/Info : Advanced Video Codec
Format profile : High@L4.1
Format settings, CABAC : Yes
Format settings, ReFrames : 4 frames
Codec ID : V_MPEG4/ISO/AVC
Duration : 1h 31mn
Bit rate : 10.2 Mbps
Width : 1 920 pixels
Height : 1 080 pixels
Display aspect ratio : 16:9
Frame rate mode : Constant
Frame rate : 23.976 fps
Color space : YUV
Chroma subsampling : 4:2:0
Bit depth : 8 bits
Scan type : Progressive
Bits/(Pixel*Frame) : 0.206
Stream size : 6.57 GiB (89%)
Title : BDRip by Ash61
Writing library : x264 core 138 r2358 9e941d1
Encoding settings : cabac=1 / ref=4 / deblock=1:-3:-3 / analyse=0x3:0x113 / me=umh / subme=10 / psy=1 / psy_rd=1.00:0.15 / mixed_ref=1 / me_range=32 / chroma_me=1 / trellis=2 / 8x8dct=1 / cqm=0 / deadzone=21,11 / fast_pskip=1 / chroma_qp_offset=-3 / threads=12 / lookahead_threads=2 / sliced_threads=0 / nr=0 / decimate=1 / interlaced=0 / bluray_compat=0 / constrained_intra=0 / bframes=8 / b_pyramid=2 / b_adapt=2 / b_bias=0 / direct=3 / weightb=1 / open_gop=0 / weightp=2 / keyint=250 / keyint_min=23 / scenecut=40 / intra_refresh=0 / rc_lookahead=60 / rc=crf / mbtree=1 / crf=17.0 / qcomp=0.70 / qpmin=0 / qpmax=69 / qpstep=4 / vbv_maxrate=40000 / vbv_bufsize=30000 / crf_max=0.0 / nal_hrd=none / frame-packing=4 / ip_ratio=1.40 / aq=1:0.70
Language : English
Default : Yes
Forced : No
Audio #1
ID : 2
Format : AC-3
Format/Info : Audio Coding 3
Mode extension : CM (complete main)
Format settings, Endianness : Big
Codec ID : A_AC3
Duration : 1h 31mn
Bit rate mode : Constant
Bit rate : 448 Kbps
Channel(s) : 6 channels
Channel positions : Front: L C R, Side: L R, LFE
Sampling rate : 48.0 KHz
Bit depth : 16 bits
Compression mode : Lossy
Stream size : 295 MiB (4%)
Title : Дубляж - R5
Language : Russian
Default : Yes
Forced : No
Audio #2
ID : 3
Format : AC-3
Format/Info : Audio Coding 3
Mode extension : CM (complete main)
Format settings, Endianness : Big
Codec ID : A_AC3
Duration : 1h 31mn
Bit rate mode : Constant
Bit rate : 640 Kbps
Channel(s) : 6 channels
Channel positions : Front: L C R, Side: L R, LFE
Sampling rate : 48.0 KHz
Bit depth : 16 bits
Compression mode : Lossy
Stream size : 421 MiB (6%)
Title : Original - BD 3D
Language : English
Default : No
Forced : No
Menu
00:00:00.000 : :1
00:06:24.175 : :2
00:14:19.024 : :3
00:22:12.788 : :4
00:29:50.121 : :5
00:37:27.244 : :6
00:45:16.630 : :7
00:52:55.338 : :8
01:00:48.101 : :9
01:07:44.851 : :10
01:15:09.962 : :11
01:22:42.957 : :12

Для оценки 3Д - Анимированные скрины















[Профиль] [ЛС]
Показать сообщения:    

Текущее время: Сегодня 16:41

Часовой пояс: GMT



Вы не можете начинать темы
Вы не можете отвечать на сообщения
Вы не можете редактировать свои сообщения
Вы не можете удалять свои сообщения
Вы не можете голосовать в опросах
Вы не можете прикреплять файлы к сообщениям
Вы не можете скачивать файлы