Оз: Великий и Ужасный / Oz the Great and Powerful (2013) BDRip 1080p

 
Автор Сообщение

sergej644 ®

Пол:

Стаж: 4 года 11 месяцев

Сообщений: 6046

Откуда: Soviet Union



Награды: Нет

Торрент-статистика

Создавать темы 21-Янв-2015 01:02

[Цитировать]

Информация о фильме
Название: Оз: Великий и Ужасный
Оригинальное название: Oz the Great and Powerful
Год выхода: 2013
Жанр: фэнтези, приключения, комедия, семейный
Режиссер: Сэм Рэйми
В ролях: Джеймс Франко, Мила Кунис, Рейчел Вайс, Мишель Уильямс, Зак Брафф, Билл Коббс, Джои Кинг, Тони Кокс, Стивен Р. Харт, Эбигейл Спенсер
О фильме:
Когда ураган забрасывает циркового фокусника Оскара Диггса из пыльного Канзаса в волшебную страну Оз, склонный к мошенничеству циркач полагает, что он поймал удачу за хвост - ведь с помощью своих трюков он с легкостью может добыть в новых землях и славу и богатство. Однако его ждёт встреча с тремя чародейками, Теодорой, Эванорой и Глиндой, которые сомневаются в том, тот ли это великий волшебник, появления которого ждали легковерные жители страны Оз. Волей-неволей, пришелец оказывается втянутым в противостояние эпического масштаба, и ему приходится использовать весь свой «магический» арсенал, с добавлением толики настоящего волшебства. В ситуации выбора между Добром и Злом, Оскару Диггсу предстоит не только стать Великим и Ужасным Волшебником из Страны Оз, но и немного измениться к лучшему.

Выпущено: США
Студия: Walt Disney Studios, Motion Pictures
Продолжительность: 02:10:29
Перевод: Дублированный + Украинский + Оригинал
Файл
Кодек: x264
Качество: BDRip (источник: Blu-ray Disc)
Видео: 1920x800 (2,40:1), 23.976 fps, 10836 kbps
Аудио #1: AC-3, 6 ch, 640 kbps (Rus)
Аудио #2: AC-3, 6 ch, 640 kbps (Ukr)
Аудио #3: AC-3, 6 ch, 640 kbps (Eng)
Субтитры: Русские (Forced), Русские, Украинские (Forced), Украинские, Английские
Скачать: семпл

Скриншоты

MI

Общее
Уникальный идентификатор : 212398494820879672724576490843366790449 (0x9FCA764E458C52E488B7BAB258F49531)
Полное имя : E:Oz.The.Great.And.Powerful.2013.BDRip.1080p.Rus.Ukr.Eng.mkv
Формат : Matroska
Версия формата : Version 4 / Version 2
Размер файла : 11,5 Гбайт
Продолжительность : 2 ч. 10 м.
Общий поток : 12,7 Мбит/сек
Название фильма : Оз: Великий и Ужасный / Oz The Great And Powerful (2013)
Дата кодирования : UTC 2013-07-07 11:38:38
Программа кодирования : mkvmerge v6.3.0 ('You can't stop me!') built on Jun 28 2013 20:09:41
Библиотека кодирования : libebml v1.3.0 + libmatroska v1.4.0
Видео
Идентификатор : 1
Формат : AVC
Формат/Информация : Advanced Video Codec
Профиль формата : High@L4.1
Параметр CABAC формата : Да
Параметр ReFrames формата : 5 кадров
Идентификатор кодека : V_MPEG4/ISO/AVC
Продолжительность : 2 ч. 10 м.
Битрейт : 10,8 Мбит/сек
Ширина : 1920 пикселей
Высота : 800 пикселей
Соотношение сторон : 2,40:1
Режим частоты кадров : Постоянный
Частота кадров : 23,976 кадра/сек
Цветовое пространство : YUV
Субдискретизация насыщенности : 4:2:0
Битовая глубина : 8 бит
Тип развёртки : Прогрессивная
Бит/(Пиксели*Кадры) : 0.294
Размер потока : 9,57 Гбайт (83%)
Заголовок : Release by N1NT3NDO
Библиотека кодирования : x264 core 133 r2334 a3ac64b
Настройки программы : cabac=1 / ref=5 / deblock=1:-3:-3 / analyse=0x3:0x113 / me=umh / subme=11 / psy=1 / psy_rd=1.00:0.00 / mixed_ref=1 / me_range=32 / chroma_me=1 / trellis=2 / 8x8dct=1 / cqm=0 / deadzone=21,11 / fast_pskip=0 / chroma_qp_offset=-2 / threads=12 / lookahead_threads=1 / sliced_threads=0 / nr=0 / decimate=0 / interlaced=0 / bluray_compat=0 / constrained_intra=0 / bframes=5 / b_pyramid=2 / b_adapt=2 / b_bias=0 / direct=2 / weightb=1 / open_gop=0 / weightp=2 / keyint=240 / keyint_min=23 / scenecut=40 / intra_refresh=0 / rc_lookahead=80 / rc=2pass / mbtree=1 / bitrate=10836 / ratetol=1.0 / qcomp=0.60 / qpmin=0 / qpmax=69 / qpstep=4 / cplxblur=20.0 / qblur=0.5 / ip_ratio=1.40 / aq=1:0.70
Язык : English
Default : Да
Forced : Нет
Аудио #1
Идентификатор : 2
Формат : AC-3
Формат/Информация : Audio Coding 3
Расширение режима : CM (complete main)
Параметр Endianness формата : Big
Идентификатор кодека : A_AC3
Продолжительность : 2 ч. 10 м.
Вид битрейта : Постоянный
Битрейт : 640 Кбит/сек
Каналы : 6 каналов
Расположение каналов : Front: L C R, Side: L R, LFE
Частота : 48,0 КГц
Битовая глубина : 16 бит
Метод сжатия : С потерями
Размер потока : 595 Мбайт (5%)
Заголовок : Rus
Язык : Russian
Default : Да
Forced : Нет
Аудио #2
Идентификатор : 3
Формат : AC-3
Формат/Информация : Audio Coding 3
Расширение режима : CM (complete main)
Параметр Endianness формата : Big
Идентификатор кодека : A_AC3
Продолжительность : 2 ч. 10 м.
Вид битрейта : Постоянный
Битрейт : 640 Кбит/сек
Каналы : 6 каналов
Расположение каналов : Front: L C R, Side: L R, LFE
Частота : 48,0 КГц
Битовая глубина : 16 бит
Метод сжатия : С потерями
Размер потока : 595 Мбайт (5%)
Заголовок : Ukr
Язык : Ukrainian
Default : Нет
Forced : Нет
Аудио #3
Идентификатор : 4
Формат : AC-3
Формат/Информация : Audio Coding 3
Расширение режима : CM (complete main)
Параметр Endianness формата : Big
Идентификатор кодека : A_AC3
Продолжительность : 2 ч. 10 м.
Вид битрейта : Постоянный
Битрейт : 640 Кбит/сек
Каналы : 6 каналов
Расположение каналов : Front: L C R, Side: L R, LFE
Частота : 48,0 КГц
Битовая глубина : 16 бит
Метод сжатия : С потерями
Размер потока : 595 Мбайт (5%)
Заголовок : Eng
Язык : English
Default : Нет
Forced : Нет
Текст #1
Идентификатор : 5
Формат : UTF-8
Идентификатор кодека : S_TEXT/UTF8
Идентификатор кодека/Информация : UTF-8 Plain Text
Заголовок : Rus (Forced)
Язык : Russian
Default : Нет
Forced : Нет
Текст #2
Идентификатор : 6
Формат : UTF-8
Идентификатор кодека : S_TEXT/UTF8
Идентификатор кодека/Информация : UTF-8 Plain Text
Заголовок : Rus
Язык : Russian
Default : Нет
Forced : Нет
Текст #3
Идентификатор : 7
Формат : UTF-8
Идентификатор кодека : S_TEXT/UTF8
Идентификатор кодека/Информация : UTF-8 Plain Text
Заголовок : Ukr (Forced)
Язык : Ukrainian
Default : Нет
Forced : Нет
Текст #4
Идентификатор : 8
Формат : UTF-8
Идентификатор кодека : S_TEXT/UTF8
Идентификатор кодека/Информация : UTF-8 Plain Text
Заголовок : Ukr
Язык : Ukrainian
Default : Нет
Forced : Нет
Текст #5
Идентификатор : 9
Формат : UTF-8
Идентификатор кодека : S_TEXT/UTF8
Идентификатор кодека/Информация : UTF-8 Plain Text
Заголовок : Eng
Язык : English
Default : Нет
Forced : Нет
Меню
00:00:00.000 : :Chapter 01
00:02:37.699 : :Chapter 02
00:06:16.959 : :Chapter 03
00:09:57.555 : :Chapter 04
00:11:32.691 : :Chapter 05
00:15:20.753 : :Chapter 06
00:17:47.191 : :Chapter 07
00:20:29.478 : :Chapter 08
00:24:01.982 : :Chapter 09
00:24:49.779 : :Chapter 10
00:27:01.661 : :Chapter 11
00:29:37.358 : :Chapter 12
00:32:43.419 : :Chapter 13
00:34:30.193 : :Chapter 14
00:37:22.657 : :Chapter 15
00:38:57.376 : :Chapter 16
00:40:39.145 : :Chapter 17
00:42:09.944 : :Chapter 18
00:42:52.444 : :Chapter 19
00:45:33.480 : :Chapter 20
00:47:22.839 : :Chapter 21
00:48:32.409 : :Chapter 22
00:53:29.831 : :Chapter 23
00:55:22.652 : :Chapter 24
00:57:15.932 : :Chapter 25
00:59:10.838 : :Chapter 26
01:02:05.263 : :Chapter 27
01:05:33.220 : :Chapter 28
01:06:21.102 : :Chapter 29
01:09:55.774 : :Chapter 30
01:12:20.836 : :Chapter 31
01:15:37.783 : :Chapter 32
01:18:20.320 : :Chapter 33
01:19:47.782 : :Chapter 34
01:21:27.882 : :Chapter 35
01:26:16.170 : :Chapter 36
01:28:08.783 : :Chapter 37
01:30:33.219 : :Chapter 38
01:34:24.116 : :Chapter 39
01:36:57.436 : :Chapter 40
01:37:35.975 : :Chapter 41
01:41:30.876 : :Chapter 42
01:42:30.394 : :Chapter 43
01:45:51.762 : :Chapter 44
01:48:33.423 : :Chapter 45
01:51:23.802 : :Chapter 46
01:54:26.317 : :Chapter 47
01:55:54.072 : :Chapter 48
01:57:58.404 : :Chapter 49
01:59:34.417 : :Chapter 50
02:02:49.570 : :Chapter 51
02:04:32.756 : :Chapter 52

x264

x264 [info]: frame I:1722 Avg QP:11.81 size:281479
x264 [info]: frame P:51756 Avg QP:15.51 size:106570
x264 [info]: frame B:132919 Avg QP:18.04 size: 34080
[Профиль] [ЛС]
Показать сообщения:    

Текущее время: Сегодня 00:37

Часовой пояс: GMT



Вы не можете начинать темы
Вы не можете отвечать на сообщения
Вы не можете редактировать свои сообщения
Вы не можете удалять свои сообщения
Вы не можете голосовать в опросах
Вы не можете прикреплять файлы к сообщениям
Вы не можете скачивать файлы