Оз: Великий и Ужасный в 3Д / Oz the Great and Powerful 3D (Сэм Рэйми / Sam Raimi) [2013, фэнтези, приключения, комедия, семейный, BDRip-AVC] Dub + Original Eng + Sub Rus, Eng Half SideBySide / Горизонтальная анаморфная стереопара

 
Автор Сообщение

TorrentFilm ®

Пол:

Стаж: 2 года

Сообщений: 7741



Награды: Нет

Торрент-статистика

Создавать темы 04-Фев-2016 00:00

[Цитировать]

Оз: Великий и Ужасный / Oz the Great and Powerful- Год выпуска: 2013
Страна: США
Жанр: фэнтези, приключения, комедия, семейный
Продолжительность: 02:10:29
Перевод: Профессиональный (дублированный)
Cубтитры: русские, английские-Режиссер: Сэм Рэйми / Sam Raimi
В ролях: Джеймс Франко, Мила Кунис, Рейчел Вайс, Мишель Уильямс, Зак Брафф, Билл Коббс, Джои Кинг, Тони Кокс, Стивен Р. Харт, Эбигейл Спенсер.
Описание: Оскар Диггс — молодой фокусник, зарабатывающий себе на жизнь не столько волшебством, сколько мошенничеством. Однажды он попадает в эпицентр сильного урагана, который переносит его в удивительное место. Оказавшись в мире с уникальной природой и невиданными существами, Оскар думает, что все это всего лишь сон, но вскоре он узнает, что попал в волшебную страну Оз. Молодой человек понимает, что здесь для него открываются огромные перспективы, ведь местные жители очень наивны. Однако, Диггс вынужден изменить свои планы после того, как он встретился с несколькими колдуньями. После этого ему становится известно, что жители этой страны уже давно ждут Великого волшебника, который, согласно древнему пророчеству, должен решить давний конфликт и вернуть мир. Никто из жителей не знает, что он всего лишь человек, а не могущественный волшебник, поэтому очень надеются на его помощь. Оскару предстоит обучиться магии, чтобы не подвести жителей Изумрудного города и всей волшебной страны.-Качество: BDRip
Контейнер: MKV | Sample
Формат 3D: Half SideBySide / Горизонтальная анаморфная стереопара
Видео кодек: x264
Аудио кодек: DTS
Видео: 1920x1080 (16:9), 23.976 fps, x264@L4.1 ~9972 kbps avg
Аудио 1: Russian 48 kHz, DTS, 3/2 (L,C,R,l,r) + LFE ch, 1509.00 kbps avg | Blu-ray
Аудио 2: English 48 kHz, DTS, 3/2 (L,C,R,l,r) + LFE ch, 1509.00 kbps avg | Original
Медиаинфо">

Скриншоты Медиаинфо


Общее
Формат : Matroska
Версия формата : Version 4 / Version 2
Размер файла : 12,1 Гбайт
Продолжительность : 2 ч. 10 м.
Общий поток : 13,3 Мбит/сек
Название фильма : Oz the Great and Powerful 2013
Дата кодирования : UTC 2014-07-20 11:34:08
Программа кодирования : mkvmerge v6.1.0 ('Old Devil') built on Mar 4 2013 09:10:42
Библиотека кодирования : libebml v1.3.0 + libmatroska v1.4.0
Видео
Идентификатор : 1
Формат : AVC
Формат/Информация : Advanced Video Codec
Профиль формата : High@L4.1
MultiView_Count : 2
MultiView_Layout : Side by Side (left eye first)
Параметр CABAC формата : Да
Параметр ReFrames формата : 4 кадра
Идентификатор кодека : V_MPEG4/ISO/AVC
Продолжительность : 2 ч. 10 м.
Битрейт : 9972 Кбит/сек
Ширина : 1920 пикселей
Высота : 1080 пикселей
Соотношение сторон : 16:9
Режим частоты кадров : Постоянный
Частота кадров : 23,976 кадра/сек
Цветовое пространство : YUV
Субдискретизация насыщенности : 4:2:0
Битовая глубина : 8 бит
Тип развёртки : Прогрессивная
Бит/(Пиксели*Кадры) : 0.201
Размер потока : 9,09 Гбайт (75%)
Заголовок : BDRip 1080p 3D
Библиотека кодирования : x264 core 133 r2334 a3ac64b
Настройки программы : cabac=1 / ref=4 / deblock=1:-3:-3 / analyse=0x3:0x113 / me=umh / subme=10 / psy=1 / psy_rd=1.00:0.15 / mixed_ref=1 / me_range=32 / chroma_me=1 / trellis=2 / 8x8dct=1 / cqm=0 / deadzone=21,11 / fast_pskip=1 / chroma_qp_offset=-3 / threads=36 / lookahead_threads=3 / sliced_threads=0 / nr=0 / decimate=1 / interlaced=0 / bluray_compat=0 / constrained_intra=0 / bframes=6 / b_pyramid=2 / b_adapt=1 / b_bias=0 / direct=3 / weightb=1 / open_gop=0 / weightp=2 / keyint=250 / keyint_min=23 / scenecut=40 / intra_refresh=0 / rc_lookahead=40 / rc=crf / mbtree=1 / crf=16.0 / qcomp=0.60 / qpmin=10 / qpmax=69 / qpstep=4 / vbv_maxrate=40000 / vbv_bufsize=30000 / crf_max=0.0 / nal_hrd=none / ip_ratio=1.40 / aq=1:1.00
Язык : English
Default : Да
Forced : Нет
Аудио #1
Идентификатор : 2
Формат : DTS
Формат/Информация : Digital Theater Systems
Режим : 16
Параметр Endianness формата : Big
Идентификатор кодека : A_DTS
Продолжительность : 2 ч. 10 м.
Вид битрейта : Постоянный
Битрейт : 1509 Кбит/сек
Каналы : 6 каналов
Расположение каналов : Front: L C R, Side: L R, LFE
Частота : 48,0 КГц
Битовая глубина : 24 бит
Метод сжатия : С потерями
Размер потока : 1,38 Гбайт (11%)
Заголовок : Blu-ray
Язык : Russian
Default : Да
Forced : Нет
Аудио #2
Идентификатор : 3
Формат : DTS
Формат/Информация : Digital Theater Systems
Режим : 16
Параметр Endianness формата : Big
Идентификатор кодека : A_DTS
Продолжительность : 2 ч. 10 м.
Вид битрейта : Постоянный
Битрейт : 1509 Кбит/сек
Каналы : 6 каналов
Расположение каналов : Front: L C R, Side: L R, LFE
Частота : 48,0 КГц
Битовая глубина : 24 бит
Метод сжатия : С потерями
Размер потока : 1,38 Гбайт (11%)
Заголовок : Original
Язык : English
Default : Нет
Forced : Нет
Текст #1
Идентификатор : 4
Формат : UTF-8
Идентификатор кодека : S_TEXT/UTF8
Идентификатор кодека/Информация : UTF-8 Plain Text
Заголовок : Forced
Язык : Russian
Default : Да
Forced : Нет
Текст #2
Идентификатор : 5
Формат : UTF-8
Идентификатор кодека : S_TEXT/UTF8
Идентификатор кодека/Информация : UTF-8 Plain Text
Заголовок : Full
Язык : Russian
Default : Нет
Forced : Нет
Текст #3
Идентификатор : 6
Формат : UTF-8
Идентификатор кодека : S_TEXT/UTF8
Идентификатор кодека/Информация : UTF-8 Plain Text
Заголовок : Full
Язык : English
Default : Нет
Forced : Нет
Текст #4
Идентификатор : 7
Формат : UTF-8
Идентификатор кодека : S_TEXT/UTF8
Идентификатор кодека/Информация : UTF-8 Plain Text
Заголовок : Full SDH
Язык : English
Default : Нет
Forced : Нет
Текст #5
Идентификатор : 8
Формат : UTF-8
Идентификатор кодека : S_TEXT/UTF8
Идентификатор кодека/Информация : UTF-8 Plain Text
Заголовок : Full SDH Colored
Язык : English
Default : Нет
Forced : Нет
Меню
00:00:00.000 : en:1. Opening Titles
00:02:37.699 : en:2. Kansas, 1905
00:06:16.960 : en:3. The Show
00:09:57.555 : en:4. Make Me Walk
00:11:32.692 : en:5. A Great Man
00:15:20.753 : en:6. The Escape
00:17:47.191 : en:7. The Tornado
00:20:29.478 : en:8. Where Am I?
00:24:01.982 : en:9. Theodora the Good Witch
00:24:49.780 : en:10. River Fairies
00:27:01.662 : en:11. The Wicked Witches' Minions
00:29:37.359 : en:12. May I Have this Dance?
00:32:43.420 : en:13. The Lion
00:34:30.193 : en:14. Finley, the Loyal Servant
00:37:22.657 : en:15. Sourpuss
00:38:57.377 : en:16. Evanora, The Royal Advisor
00:40:39.145 : en:17. I'm Not Wicked!
00:42:09.944 : en:18. Show Me Now
00:42:52.445 : en:19. The Royal Treasure of Oz
00:45:33.481 : en:20. No Turning Back
00:47:22.840 : en:21. China Town
00:48:32.409 : en:22. China Girl
00:53:29.832 : en:23. Crossroads
00:55:22.653 : en:24. The Dark Forest
00:57:15.932 : en:25. The Plan
00:59:10.839 : en:26. Glinda the Good
01:02:05.263 : en:27. Broken Heart
01:05:33.221 : en:28. The Prophecy
01:06:21.102 : en:29. She Knows
01:09:55.775 : en:30. Bubble Voyage
01:12:20.836 : en:31. Wizard Enough
01:15:37.783 : en:32. One Bite
01:18:20.321 : en:33. The Good People of Oz
01:19:47.783 : en:34. The Munchkin Song
01:21:27.883 : en:35. Theodora the Wicked
01:26:16.171 : en:36. Leaving
01:28:08.783 : en:37. Tuck Me In
01:30:33.219 : en:38. Battle Plan
01:34:24.117 : en:39. Few But Mighty
01:36:57.437 : en:40. The Guard Gate
01:37:35.975 : en:41. The Battle Begins
01:41:30.876 : en:42. Stick With the Plan
01:42:30.394 : en:43. Glinda in Chains
01:45:51.762 : en:44. Give Up, Glinda
01:48:33.424 : en:45. No One Defies Oz!
01:51:23.802 : en:46. Unleash the Stars
01:54:26.318 : en:47. Witch Fight
01:55:54.072 : en:48. What Have You Done?
01:57:58.405 : en:49. Forever Free
01:59:34.417 : en:50. Gifts
02:02:49.571 : en:51. What Do You See?
02:04:32.757 : en:52. Credits
[Профиль] [ЛС]
Показать сообщения:    

Текущее время: Сегодня 22:31

Часовой пояс: GMT



Вы не можете начинать темы
Вы не можете отвечать на сообщения
Вы не можете редактировать свои сообщения
Вы не можете удалять свои сообщения
Вы не можете голосовать в опросах
Вы не можете прикреплять файлы к сообщениям
Вы не можете скачивать файлы