Озорники / Hellions (2015) WEB-DL 720p | L2

 
Автор Сообщение

достали все ®

Пол:

Стаж: 1 год 8 месяцев

Сообщений: 6515



Награды: 12 (Подробнее)

Mega Seeder 1 (Количество: 1) Mega Releaser 1 (Количество: 1) Mega Seeder 2 (Количество: 1)
Торрент-статистика

Создавать темы 29-Сен-2015 21:58

[Цитировать]

Информация о фильме
Название: Озорники
Оригинальное название: Hellions
Год выхода: 2015
Жанр: ужасы
Режиссер: Брюс МакДональд
В ролях: Хлоя Роуз, Роберт Патрик, Россиф Сазерленд, Рэйчел Уилсон, Люк Билык, Питер ДаКуна, Эмир Хирад Мокхтарие, Николас Крэйг, Сидни Кросс, Стефани Фонсека
О фильме: Рассказ пойдет про то, как 17-летняя девушка борется за свою жизнь, убегая от непонятно откуда взявшихся на Хэллоуин кошмарных монстров.

Выпущено: Канада / Storyteller Pictures, Whizbang Films Inc.
Продолжительность: 01:21:50
Озвучивание: Любительское (двухголосое) [den904 & DeadSno]
Файл
Формат: MKV
Качество: WEB-DL 720p
Видео: 3923 kb/s, 1280x690
Аудио: Russian: AC3, 192 kb/s (2 ch) / English: AC3, 384 kb/s (6 ch)
Субтитры: English

MI

Format : Matroska
Format version : Version 4 / Version 2
File size : 2.62 GiB
Duration : 1h 21mn
Overall bit rate : 4 590 Kbps
Encoded date : UTC 2015-09-29 20:12:55
Writing application : mkvmerge v6.1.0 ('Old Devil') built on Mar 4 2013 09:10:42
Writing library : libebml v1.3.0 + libmatroska v1.4.0
Video
ID : 1
Format : AVC
Format/Info : Advanced Video Codec
Format profile : High@L3.1
Format settings, CABAC : No
Format settings, ReFrames : 2 frames
Codec ID : V_MPEG4/ISO/AVC
Duration : 1h 21mn
Bit rate : 3 923 Kbps
Width : 1 280 pixels
Height : 690 pixels
Display aspect ratio : 1.85:1
Frame rate mode : Constant
Frame rate : 23.976 fps
Color space : YUV
Chroma subsampling : 4:2:0
Bit depth : 8 bits
Scan type : Progressive
Bits/(Pixel*Frame) : 0.185
Stream size : 2.24 GiB (85%)
Language : English
Default : Yes
Forced : No
Color range : Limited
Color primaries : BT.709
Transfer characteristics : BT.709
Matrix coefficients : BT.709
Audio #1
ID : 2
Format : AC-3
Format/Info : Audio Coding 3
Mode extension : CM (complete main)
Format settings, Endianness : Big
Codec ID : A_AC3
Duration : 1h 21mn
Bit rate mode : Constant
Bit rate : 192 Kbps
Channel(s) : 2 channels
Channel positions : Front: L R
Sampling rate : 48.0 KHz
Bit depth : 16 bits
Compression mode : Lossy
Stream size : 112 MiB (4%)
Language : Russian
Default : Yes
Forced : No
Audio #2
ID : 3
Format : AC-3
Format/Info : Audio Coding 3
Mode extension : CM (complete main)
Format settings, Endianness : Big
Codec ID : A_AC3
Duration : 1h 21mn
Bit rate mode : Constant
Bit rate : 384 Kbps
Channel(s) : 6 channels
Channel positions : Front: L C R, Side: L R, LFE
Sampling rate : 48.0 KHz
Bit depth : 16 bits
Compression mode : Lossy
Stream size : 225 MiB (8%)
Language : English
Default : No
Forced : No
Text
ID : 4
Format : UTF-8
Codec ID : S_TEXT/UTF8
Codec ID/Info : UTF-8 Plain Text
Language : English
Default : No
Forced : No

Скриншоты

[Профиль] [ЛС]
Кто просматривает тему:

Форум Тема Автор Размер
Фильмы 2015 года Озорники / Hellions (2015) WEB-DLRip | L2 BOSS 1.35 GB
Показать сообщения:    

Текущее время: Сегодня 05:00

Часовой пояс: GMT



Вы не можете начинать темы
Вы не можете отвечать на сообщения
Вы не можете редактировать свои сообщения
Вы не можете удалять свои сообщения
Вы не можете голосовать в опросах
Вы не можете прикреплять файлы к сообщениям
Вы не можете скачивать файлы