Оживший Лондонский Музей Естествознания с Дэвидом Аттенборо / David Attenborough\'s Natural History Museum Alive (Дэниэл М. Смит / Daniel M. Smith) [2014, Документальный, BDRip 1080p]

 
Автор Сообщение

TorrentFilm ®

Пол:

Стаж: 2 года

Сообщений: 7741



Награды: Нет

Торрент-статистика

Создавать темы 02-Июн-2015 00:04

[Цитировать]

Оживший Лондонский Музей Естествознания с Дэвидом Аттенборо / David Attenborough's Natural History Museum Alive
-Год выпуска: 2014
Страна: Великобритания
Жанр: Документальный
Продолжительность: 01:06:51
Перевод: Одноголосый закадровый, студия «Омикрон»
Режиссер: Дэниэл М. Смит / Daniel M. Smith
Рассказчик: Дэвид Аттенборо / David Attenborough-Описание: Дэвид Аттенборо приглашает зрителей в путешествие по Лондонскому музею естествознания. Когда двери музея заперты и наступает ночь, Аттенборо рассказывает о некоторых из самых увлекательных вымерших животных, которые оживают на его глазах: динозавры, фауна ледникового периода и гигантские рептилии.-
Сэмпл-Тип релиза: BDRip 1080p
Контейнер: MKV
Видео: 1920x1080 (16:9) at 23.976 fps, MPEG-4 AVC, ~16 Мbps avg
Аудио: Russian: 48 kHz/16-bit, DTS, 2/0 (R, L) ch, ~1536.00 kbps avg
Аудио 2: English: 48 kHz/16-bit, DTS, 2/0 (R, L) ch, ~1536.00 kbps avg
Субтитры: Russian (Ash61), English-Релиз: -

Скриншоты

MediaInfo

General
Unique ID : 241989654586048681782588863625328972613 (0xB60D831F88AF54CE980AA49A33F9D345)
Complete name : D:\Фильмы\David.Attenborough's.Natural.History.Museum.Alive.2014.1080p.BluRay.Rus.Eng.HDCLUB.mkv
Format : Matroska
Format version : Version 2
File size : 9.31 GiB
Duration : 1h 6mn
Overall bit rate : 19.9 Mbps
Movie name : Release for HDCLUB
Encoded date : UTC 2015-05-20 22:45:03
Writing application : mkvmerge v3.2.0 ('Beginnings') built on Feb 12 2010 16:46:17
Writing library : libebml v0.7.9 + libmatroska v0.8.1
Video
ID : 1
Format : AVC
Format/Info : Advanced Video Codec
Format profile : High@L4.1
Format settings, CABAC : Yes
Format settings, ReFrames : 7 frames
Codec ID : V_MPEG4/ISO/AVC
Duration : 1h 6mn
Bit rate : 16.5 Mbps
Width : 1 920 pixels
Height : 1 080 pixels
Display aspect ratio : 16:9
Frame rate mode : Constant
Frame rate : 23.976 fps
Color space : YUV
Chroma subsampling : 4:2:0
Bit depth : 8 bits
Scan type : Progressive
Bits/(Pixel*Frame) : 0.332
Stream size : 7.71 GiB (83%)
Title : Release for HDCLUB
Writing library : x264 core 133 r2334 a3ac64b
Encoding settings : cabac=1 / ref=7 / deblock=1:-3:-3 / analyse=0x3:0x113 / me=umh / subme=10 / psy=1 / psy_rd=1.00:0.08 / mixed_ref=1 / me_range=24 / chroma_me=1 / trellis=2 / 8x8dct=1 / cqm=0 / deadzone=21,11 / fast_pskip=0 / chroma_qp_offset=-3 / threads=6 / lookahead_threads=1 / sliced_threads=0 / nr=0 / decimate=0 / interlaced=0 / bluray_compat=0 / constrained_intra=0 / bframes=7 / b_pyramid=2 / b_adapt=2 / b_bias=0 / direct=3 / weightb=1 / open_gop=0 / weightp=2 / keyint=250 / keyint_min=23 / scenecut=40 / intra_refresh=0 / rc_lookahead=50 / rc=crf / mbtree=1 / crf=16.0 / qcomp=0.70 / qpmin=0 / qpmax=69 / qpstep=4 / vbv_maxrate=50000 / vbv_bufsize=60000 / crf_max=0.0 / nal_hrd=none / ip_ratio=1.40 / aq=1:0.80
Language : English
Default : No
Forced : No
_STATISTICS_WRITING_APP : mkvmerge v7.4.0 ('Circles') 64bit built on Dec 12 2014 12:19:56
_STATISTICS_WRITING_DATE_UTC : 2014-12-19 11:11:24
_STATISTICS_TAGS : BPS DURATION NUMBER_OF_FRAMES NUMBER_OF_BYTES
DURATION : 01:06:51.049000000
NUMBER_OF_FRAMES : 96169
NUMBER_OF_BYTES : 8477463423
Audio #1
ID : 2
Format : DTS
Format/Info : Digital Theater Systems
Mode : 16
Format settings, Endianness : Big
Codec ID : A_DTS
Duration : 1h 6mn
Bit rate mode : Constant
Bit rate : 1 509 Kbps
Channel(s) : 2 channels
Channel positions : Front: L R
Sampling rate : 48.0 KHz
Bit depth : 16 bits
Compression mode : Lossy
Stream size : 722 MiB (8%)
Title : DTS 5.1 @ 1536 kbps - Одноголосый закадровый, студия "Омикрон"
Language : Russian
Default : Yes
Forced : No
Audio #2
ID : 3
Format : DTS
Format/Info : Digital Theater Systems
Mode : 16
Format settings, Endianness : Big
Codec ID : A_DTS
Duration : 1h 6mn
Bit rate mode : Constant
Bit rate : 1 509 Kbps
Channel(s) : 2 channels
Channel positions : Front: L R
Sampling rate : 48.0 KHz
Bit depth : 16 bits
Compression mode : Lossy
Delay relative to video : 11ms
Stream size : 722 MiB (8%)
Title : DTS 5.1 @ 1536 kbps
Language : English
Default : No
Forced : No
Text #1
ID : 4
Format : UTF-8
Codec ID : S_TEXT/UTF8
Codec ID/Info : UTF-8 Plain Text
Language : Russian
Default : No
Forced : No
Text #2
ID : 5
Format : UTF-8
Codec ID : S_TEXT/UTF8
Codec ID/Info : UTF-8 Plain Text
Language : English
Default : No
Forced : No
Menu
00:00:00.000 : en:00:00:00.000
00:08:31.469 : en:00:08:31.469
00:18:29.942 : en:00:18:29.942
00:36:42.826 : en:00:36:42.826
00:46:47.805 : en:00:46:47.805
00:55:21.652 : en:00:55:21.652

Дополнительно

Задействован 1 актер.
Русская дорожка получена наложением чистого голоса.
Озвучивание осуществлено в рамках сервиса "Озвучивание". Спонсоры: RAUL, superbizho, terminal, tasat, himikell, Plesha, longru, Dimarik.
Раздача от группы:
[Профиль] [ЛС]
Кто просматривает тему:

Форум Тема Автор Размер
История древнего мира Живые камни (Ожившая архитектура) / Living Stones [серии 1-10 из 23] (Валери Жирье) [2002-2005 г., Документальный, история, археология, SATRip] skorpionN 3.8 GB
Приключения, Квесты, Логические Ожившие легенды 7. Секрет жизни / Haunted Legends 7: The Secret of Life CE (2015) PC достали все 975 MB
Отечественные мультфильмы Оживший город (В. Игольсен, Ирина Кривошеева) [1978, Узбекфильм, кукольная анимация, TeleSynch] TorrentFilm 100 MB
Документальные HD Оживший Лондонский Музей Естествознания с Дэвидом Аттенборо / David Attenborough\'s Natural History Museum Alive (Дэниэл М. Смит / Daniel M. Smith) [2014, Документальный, BDRip 720p] TorrentFilm 4.21 GB
Документальные HD Оживший Лондонский Музей естествознания с Дэвидом Аттенборо / David Attenborough\'s Natural History Museum Alive (Дэниэл М. Смит / Daniel M. Smith) [2014, Документальный, видовой, BDRemux 1080p] V... TorrentFilm 11.99 GB
Приключения, Квесты, Логические Страшные сказки 7: Ожившие Кошмары / Grim Tales 7: Color Of Fright CE (2014) РС sergej644 1.12 GB
Показать сообщения:    

Текущее время: Сегодня 01:18

Часовой пояс: GMT



Вы не можете начинать темы
Вы не можете отвечать на сообщения
Вы не можете редактировать свои сообщения
Вы не можете удалять свои сообщения
Вы не можете голосовать в опросах
Вы не можете прикреплять файлы к сообщениям
Вы не можете скачивать файлы