Одноклассницы / St. Trinian\'s (Оливер Паркер / Oliver Parker) [2007, Великобритания, комедия, BDRip-AVC] MVO + Original (Eng) + Sub (Rus, Eng)

 
Автор Сообщение

TorrentFilm ®

Пол:

Стаж: 2 года

Сообщений: 7741



Награды: Нет

Торрент-статистика

Создавать темы 18-Мар-2015 00:02

[Цитировать]

Одноклассницы / St. Trinian's
Страна: Великобритания
Жанр: комедия
Год выпуска: 2007
Продолжительность: 01:41:09
Перевод: Профессиональный (многоголосый закадровый)
Cубтитры: русские, английские
Оригинальная аудиодорожка: английский
Режиссер: Оливер Паркер / Oliver Parker
В ролях: Миша Бартон, Руперт Эверетт, Колин Ферт, Джоди Уитэйкер, Джемма Артертон, Джонатан Бэйли, Антония Бернат, Расселл Брэнд, Анна Ченселлор, Шерил Твиди
Описание: Сент-Триниан - не совсем обычная школа для молодых особ, не поддающихся контролю...

Исходник: Одноклассницы / St. Trinian's (2007) 1080p BD-Remux
Качество видео: BDRip-AVC | | sample
Формат видео: MKV
Видео кодек: x264
Видео: AVC 1104x598 (1.85:1), 23.976 fps, ~3450 Kbps, 0.21 bit/pixel
Аудио #1: Russian AC3 6ch 48kHz 448Kbps | MVO
Аудио #2: English AC3 6ch 48kHz 448Kbps | Original
Формат субтитров: softsub (SRT)
Главы: есть

MediaInfo | x264x264

--[Information] [08.03.2015 7:58:26] x264 [info]: frame I:1163 Avg QP:16.10 size: 77299
--[Information] [08.03.2015 7:58:26] x264 [info]: frame P:31148 Avg QP:17.76 size: 31541
--[Information] [08.03.2015 7:58:26] x264 [info]: frame B:113201 Avg QP:19.19 size: 13612
--[Information] [08.03.2015 7:58:26] x264 [info]: consecutive B-frames: 2.0% 2.7% 6.4% 24.2% 15.4% 37.4% 3.7% 2.6% 0.9% 0.7% 0.2% 3.5% 0.2%
--[Information] [08.03.2015 7:58:26] x264 [info]: kb/s:3444.62
General
Complete name : E:\...\St.Trinian's.2007.GER.BDRip.x264.DD5.1.Rus.Eng-E76.mkv
Format : Matroska
Format version : Version 2
File size : 3.07 GiB
Duration : 1h 41mn
Overall bit rate : 4 342 Kbps
Movie name : St.Trinian's.2007.GER.BDRip.x264.DD5.1.Rus.Eng-E76
Encoded date : UTC 2015-03-12 07:58:25
Writing application : mkvmerge v7.0.0 ('Where We Going') 64bit built on Jun 9 2014 15:16:27
Writing library : libebml v1.3.0 + libmatroska v1.4.1
Video
ID : 1
Format : AVC
Format/Info : Advanced Video Codec
Format profile : High@L4.1
Format settings, CABAC : Yes
Format settings, ReFrames : 10 frames
Codec ID : V_MPEG4/ISO/AVC
Duration : 1h 41mn
Bit rate : 3 359 Kbps
Width : 1 104 pixels
Height : 598 pixels
Display aspect ratio : 1.85:1
Frame rate mode : Constant
Frame rate : 23.976 fps
Color space : YUV
Chroma subsampling : 4:2:0
Bit depth : 8 bits
Scan type : Progressive
Bits/(Pixel*Frame) : 0.212
Stream size : 2.37 GiB (77%)
Title : St. Trinian's (2007)
Writing library : x264 core 144 r2525kMod 40bb568
Encoding settings : cabac=1 / ref=10 / deblock=1:-3:-3 / analyse=0x3:0x113 / me=umh / subme=11 / psy=1 / fade_compensate=0.00 / psy_rd=1.00:0.00 / mixed_ref=1 / me_range=48 / chroma_me=1 / trellis=2 / 8x8dct=1 / cqm=0 / deadzone=21,11 / fast_pskip=1 / chroma_qp_offset=-2 / threads=6 / lookahead_threads=1 / sliced_threads=0 / nr=0 / decimate=1 / interlaced=0 / bluray_compat=0 / constrained_intra=0 / fgo=0 / bframes=12 / b_pyramid=2 / b_adapt=2 / b_bias=0 / direct=1 / weightb=1 / open_gop=0 / weightp=2 / keyint=240 / keyint_min=23 / scenecut=40 / intra_refresh=0 / rc_lookahead=0 / rc=crf / mbtree=0 / crf=18.0000 / qcomp=0.60 / qpmin=0 / qpmax=69 / qpstep=4 / vbv_maxrate=62500 / vbv_bufsize=78125 / crf_max=0.0 / nal_hrd=none / filler=0 / ip_ratio=1.40 / pb_ratio=1.20 / aq=1:1.00 / zones=140090,145511,q=30
Language : English
Default : Yes
Forced : No
Matrix coefficients : BT.709
Audio #1
ID : 2
Format : AC-3
Format/Info : Audio Coding 3
Mode extension : CM (complete main)
Format settings, Endianness : Big
Codec ID : A_AC3
Duration : 1h 41mn
Bit rate mode : Constant
Bit rate : 448 Kbps
Channel(s) : 6 channels
Channel positions : Front: L C R, Side: L R, LFE
Sampling rate : 48.0 KHz
Bit depth : 16 bits
Compression mode : Lossy
Stream size : 324 MiB (10%)
Title : MVO
Language : Russian
Default : Yes
Forced : No
Audio #2
ID : 3
Format : AC-3
Format/Info : Audio Coding 3
Mode extension : CM (complete main)
Format settings, Endianness : Big
Codec ID : A_AC3
Duration : 1h 41mn
Bit rate mode : Constant
Bit rate : 448 Kbps
Channel(s) : 6 channels
Channel positions : Front: L C R, Side: L R, LFE
Sampling rate : 48.0 KHz
Bit depth : 16 bits
Compression mode : Lossy
Stream size : 324 MiB (10%)
Title : Original
Language : English
Default : No
Forced : No
Text #1
ID : 4
Format : UTF-8
Codec ID : S_TEXT/UTF8
Codec ID/Info : UTF-8 Plain Text
Language : Russian
Default : No
Forced : No
Text #2
ID : 5
Format : UTF-8
Codec ID : S_TEXT/UTF8
Codec ID/Info : UTF-8 Plain Text
Title : SDH
Language : English
Default : No
Forced : No
Menu
00:00:00.000 : en:00:00:00.000
00:11:18.135 : en:00:11:18.135
...
01:34:20.613 : en:01:34:20.613

Скриншоты



source GER vs E76 vs 720p


=> Новые релизы в AVC | | Заказ рипов в AVC
[Профиль] [ЛС]

Создавать темы 06-Авг-2015 22:40 (спустя 4 месяца 19 дней)

Топик был перенесен из форума Фильмы до 2014 года в форум Фильмы до 2012 года
sergej644
 
Показать сообщения:    

Текущее время: Сегодня 00:29

Часовой пояс: GMT



Вы не можете начинать темы
Вы не можете отвечать на сообщения
Вы не можете редактировать свои сообщения
Вы не можете удалять свои сообщения
Вы не можете голосовать в опросах
Вы не можете прикреплять файлы к сообщениям
Вы не можете скачивать файлы