Одноклассники / Purple Violets (Эдвард Бёрнс / Edward Burns) [2007, США, комедия, мелодрама, драма, WEB-DL 720p] MVO (R5) + Sub Eng + Original Eng

 
Автор Сообщение

reversefile ®

Пол:

Стаж: 4 года 5 месяцев

Сообщений: 842

Откуда: ReverseFile.org



Награды: Нет

Торрент-статистика

Создавать темы 13-Авг-2014 18:26

[Цитировать]

Одноклассники / Purple Violets
Страна: США
Жанр: комедия, мелодрама, драма
Год выпуска: 2007
Продолжительность: 01:47:09
Перевод: Профессиональный (многоголосый закадровый) R5
Cубтитры: английские
Оригинальная аудиодорожка: английский
Режиссер: Эдвард Бёрнс / Edward Burns
В ролях: Аннетт Арнольд, Сэльма Блэр, Джеймс Бибери, Эдвард Бёрнс, Дебра Мессинг, Деннис Фарина, Дара Коулмэн, Хезер Голденхерш, Сара Хаднат, Хезер О`Нейлл
Описание: Патти, в прошлом подающая надежды писательница, хоронила свою мечту под карьерой риэлтора и рутинным замужеством, пока случайно не встретила свою первую школьную любовь — Брайана, который вернул ей желание и писать, и любить.
Кейт, лучшая подруга Патти, так же встречает свою первую любовь — Майкла. Но их встреча не столь радостная. Кейт продолжает злиться на своего старого приятеля за его принципиальные взгляды на жизнь, а тот в свою очередь изо всех сил желает получить Кейт обратно.
Доп. информация: Видео и английская дорожка были взяты из iTunes (спасибо jhonny2). Русская аудиодорожка была взята из лицензионного R5-DVD-издания от VOX-VIDEO и подогнана под продолжительность фильма. Английские субтитры были взяты из моей предыдущей раздачи DVD этого фильма.
Использованные программы: Yamb (разборка M4V-файла на потоки), Subtitle Workshop (обработка субтитров), BeSweet+BeLight (разложение AC3-дорожки на WAV-файлы), Adobe Audition (обработка аудио), SonicFoundry Soft Encode (кодирование AC3), MKVToolNix (сборка MKV-файла).
Сэмпл: http://multi-up.com/991538
Тип релиза: WEB-DL 720p
Контейнер: MKV
Видео: AVC, 16:9, 1280x690, 23.976 fps, 4170 Kbps (iTunes)
Аудио 1: рус Dolby AC3 5.1 448 kbps 48.0 KHz
Аудио 2: англ Dolby AC3 5.1 384 kbps 48.0 KHz
Формат субтитров: softsub (SRT)

MediaInfo

General
Unique ID : 180653299180956788181029636627504986855 (0x87E88F51F8053573B8E7BF04C8FA7AE7)
Complete name : C:\HDD01\MOVIES\Одноклассники HD720.mkv
Format : Matroska
Format version : Version 4 / Version 2
File size : 3.82 GiB
Duration : 1h 47mn
Overall bit rate : 5 103 Kbps
Encoded date : UTC 2014-08-09 21:56:38
Writing application : mkvmerge v7.1.0 ('Good Love') 32bit built on Jul 27 2014 12:59:18
Writing library : libebml v1.3.0 + libmatroska v1.4.1
DURATION : 01:43:20.951000000
NUMBER_OF_FRAMES : 1693
NUMBER_OF_BYTES : 71793
_STATISTICS_WRITING_APP : mkvmerge v7.1.0 ('Good Love') 32bit built on Jul 27 2014 12:59:18
_STATISTICS_WRITING_DATE_UTC : 2014-08-09 21:56:38
_STATISTICS_TAGS : BPS DURATION NUMBER_OF_FRAMES NUMBER_OF_BYTES
Video
ID : 1
Format : AVC
Format/Info : Advanced Video Codec
Format profile : High@L3.1
Format settings, CABAC : No
Format settings, ReFrames : 2 frames
Codec ID : V_MPEG4/ISO/AVC
Duration : 1h 47mn
Bit rate : 4 170 Kbps
Width : 1 280 pixels
Height : 690 pixels
Display aspect ratio : 1.85:1
Frame rate mode : Constant
Frame rate : 23.976 fps
Color space : YUV
Chroma subsampling : 4:2:0
Bit depth : 8 bits
Scan type : Progressive
Bits/(Pixel*Frame) : 0.197
Stream size : 3.12 GiB (82%)
Title : Purple Violets
Default : Yes
Forced : No
Color primaries : BT.709
Transfer characteristics : BT.709
Matrix coefficients : BT.709
Audio #1
ID : 2
Format : AC-3
Format/Info : Audio Coding 3
Mode extension : CM (complete main)
Format settings, Endianness : Big
Codec ID : A_AC3
Duration : 1h 47mn
Bit rate mode : Constant
Bit rate : 448 Kbps
Channel(s) : 6 channels
Channel positions : Front: L C R, Side: L R, LFE
Sampling rate : 48.0 KHz
Bit depth : 16 bits
Compression mode : Lossy
Stream size : 343 MiB (9%)
Title : Russian R5
Language : Russian
Default : Yes
Forced : No
Audio #2
ID : 3
Format : AC-3
Format/Info : Audio Coding 3
Mode extension : CM (complete main)
Format settings, Endianness : Big
Codec ID : A_AC3
Duration : 1h 47mn
Bit rate mode : Constant
Bit rate : 384 Kbps
Channel(s) : 6 channels
Channel positions : Front: L C R, Side: L R, LFE
Sampling rate : 48.0 KHz
Bit depth : 16 bits
Compression mode : Lossy
Stream size : 294 MiB (8%)
Title : English
Language : English
Default : No
Forced : No
Text
ID : 4
Format : UTF-8
Codec ID : S_TEXT/UTF8
Codec ID/Info : UTF-8 Plain Text
Title : English
Language : English
Default : No
Forced : No
Menu
00:00:00.000 : en:An Unlikely Reunion
00:09:04.000 : en:The Good Doctor
00:19:53.000 : en:"It Slipped My Mind"
00:30:56.000 : en:The Olive Branch
00:42:34.000 : en:"I'm Married, Brian"
00:52:30.000 : en:"I'm Not Interested"
01:01:50.000 : en:Romance in the Hamptons
01:16:57.000 : en:Forgiveness?
01:23:23.000 : en:"Do you love him?!"
01:31:00.000 : en:Alone on a Bench
01:36:07.000 : en:The Last Knight
01:43:06.000 : en:End Credits
[Профиль] [ЛС]
Показать сообщения:    

Текущее время: Сегодня 06:27

Часовой пояс: GMT



Вы не можете начинать темы
Вы не можете отвечать на сообщения
Вы не можете редактировать свои сообщения
Вы не можете удалять свои сообщения
Вы не можете голосовать в опросах
Вы не можете прикреплять файлы к сообщениям
Вы не можете скачивать файлы