Одна семья / Бир аилə / Bir ailə (Григорий Александров) [1943, драма, боевой киносборник, DVDRip]

 
Автор Сообщение

reversefile ®

Пол:

Стаж: 4 года 5 месяцев

Сообщений: 842

Откуда: ReverseFile.org



Награды: Нет

Торрент-статистика

Создавать темы 25-Июл-2014 01:16

[Цитировать]

Одна семья / Бир аилə / Bir ailə
Жанр: драма, боевой киносборник
Год выпуска: 1943
Продолжительность: 01:24:05
Режиссёр: Григорий Александров
В ролях: Хосров Меликов, Мерзия Ханум, Любовь Орлова, М. Жариков, А. Филиппова, Олег Жаков, Окюма Курбанова, Али-Сэттар (Алекпер) Меликов, Кязим Зия, Виктор Шарлахов
Описание: О героических буднях жителей Баку в годы Великой Отечественной войны. Боевой киносборник состоит их трёх новелл, объединённых общим сюжетом. 1942 год. Находящийся в отпуске фронтовик-азербайджанец попадает в русскую семью, приветливо встретившую его; между ним и дочерью хозяев возникает чувство. Новеллы представляют собой рассказы, которыми обмениваются герои.

Качество видео: DVDRip Исходник
Формат видео: AVI
Видео: 608x464, 25.000 fps, XviD ~1128 kbps avg, 0.160 bit/pixel
Аудио: 48 kHz, MPEG Layer 3, 1 ch, ~96 kbps avg

MediaInfo

Общее
Полное имя                               : D:\Раздачи\Одна семья DVDRip.avi
Формат                                   : AVI
Формат/Информация                        : Audio Video Interleave
Размер файла                             : 742 Мбайт
Продолжительность                        : 1 ч. 24 м.
Общий поток                              : 1234 Кбит/сек
Программа кодирования                    : VirtualDubMod 1.5.10.3 | www.virtualdub-fr.org || (build 2550/release)
Библиотека кодирования                   : VirtualDubMod build 2550/release
Видео
Идентификатор                            : 0
Формат                                   : MPEG-4 Visual
Профиль формата                          : Advanced Simple@L5
Параметр BVOP формата                    : 2
Параметр QPel формата                    : Нет
Параметр GMC формата                     : Без точки перехода
Параметр матрицы формата                 : Выборочная
Идентификатор кодека                     : XVID
Идентификатор кодека/Подсказка           : XviD
Продолжительность                        : 1 ч. 24 м.
Битрейт                                  : 1128 Кбит/сек
Ширина                                   : 608 пикселей
Высота                                   : 464 пикселя
Соотношение сторон                       : 4:3
Частота кадров                           : 25,000 кадров/сек
Цветовое пространство                    : YUV
Субдискретизация насыщенности            : 4:2:0
Битовая глубина                          : 8 бит
Тип развёртки                            : Прогрессивная
Метод сжатия                             : С потерями
Бит/(Пиксели*Кадры)                      : 0.160
Размер потока                            : 678 Мбайт (91%)
Библиотека кодирования                   : XviD 1.2.1 (UTC 2008-12-04)
Аудио
Идентификатор                            : 1
Формат                                   : MPEG Audio
Версия формата                           : Version 1
Профиль формата                          : Layer 3
Идентификатор кодека                     : 55
Идентификатор кодека/Подсказка           : MP3
Продолжительность                        : 1 ч. 24 м.
Вид битрейта                             : Постоянный
Битрейт                                  : 96,0 Кбит/сек
Каналы                                   : 1 канал
Частота                                  : 48,0 КГц
Метод сжатия                             : С потерями
Размер потока                            : 57,7 Мбайт (8%)
Выравнивание                             : Соединение по промежуткам
Продолжительность промежутка             : 40  мс. (1,00 видеокадр)
Время предзагрузки промежутка            : 504  мс.
Библиотека кодирования                   : LAME3.99r
Настройки программы                      : -m m -V 4 -q 0 -lowpass 20.5 -b 96

Скриншот c названием фильма

Скриншоты

[Профиль] [ЛС]

Создавать темы 06-Авг-2015 22:06 (спустя 1 год)

Топик был перенесен из форума Кино СССР в форум Кино СССР
sergej644
 
Кто просматривает тему:

Показать сообщения:    

Текущее время: Сегодня 05:20

Часовой пояс: GMT



Вы не можете начинать темы
Вы не можете отвечать на сообщения
Вы не можете редактировать свои сообщения
Вы не можете удалять свои сообщения
Вы не можете голосовать в опросах
Вы не можете прикреплять файлы к сообщениям
Вы не можете скачивать файлы