Одна неделя / One Week (Майкл Макгоун / Michael McGowan) [2008, Канада, драма, приключения, BDRip] DVO (TV1000)

 
Автор Сообщение

TorrentFilm ®

Пол:

Стаж: 2 года

Сообщений: 7741



Награды: Нет

Торрент-статистика

Создавать темы 07-Янв-2015 00:00

[Цитировать]

Одна неделя / One Week- Год выпуска: 2008
Выпущено: Канада
Жанр: драма, приключения
Продолжительность: 01:34:09
Перевод: Профессиональный (двухголосый, закадровый) TV1000
Субтитры: нет-Режиссер: Майкл Макгоун / Michael McGowan
В ролях: Джошуа Джексон, Лиэн Балабан, Кэмпбелл Скотт, Райан Аллен, Джим Аннан, Крис Бенсон, Джоди Брукс, Кэролайн Кейв, Джим Кодрингтон, Горд Дауни
О фильме: Когда Бену Тайлеру был диагностирован рак, небольшой шанс на излечение он сразу отверг, а стал собираться в своё последнее путешествие. Пересекая Канаду на мотоцикле он найдёт новых друзей, многое переосмыслит, вспомнит несбывшиеся мечты. А главное поймёт, что нельзя найти смысл своей жизни, не научившись сперва свою жизнь ценить.-Релиз:
Автор: kingsize87
Качество: BDRip (источник: DeV1L93_93 / BD-Remux / 1080i)
Формат: AVI
Видео: 704x400 (1.76:1), 23.976 fps, XviD build 65 ~2004 kbps avg, 0.30 bit/pixel
Аудио: 48 kHz, AC3 Dolby Digital, 2/0 (L,R), ~192.00 kbps avg
Размер: 1485.69 Mb (1/3 DVD-R)
Скачать: Семпл-

Кадры из фильма


-

Mi

Формат : AVI
Формат/Информация : Audio Video Interleave
Размер файла : 1,45 Гбайт
Продолжительность : 1 ч. 34 м.
Общий поток : 2206 Кбит/сек
Название фильма : Одна неделя / One Week (2008) BDRip
Режиссёр : kingsize87
Программа кодирования : VirtualDubMod 1.5.10.2 (build 2540/release)
Правообладатель : HQCLUB
Примечание : 04.01.2015
Видео
Идентификатор : 0
Формат : MPEG-4 Visual
Профиль формата : Advanced Simple@L5
Параметр BVOP формата : 1
Параметр QPel формата : Нет
Параметр GMC формата : Без точки перехода
Параметр матрицы формата : Выборочная
Идентификатор кодека : XVID
Идентификатор кодека/Подсказка : XviD
Продолжительность : 1 ч. 34 м.
Битрейт : 2005 Кбит/сек
Ширина : 704 пикселя
Высота : 400 пикселей
Соотношение сторон : 16:9
Частота кадров : 23,976 кадра/сек
Цветовое пространство : YUV
Субдискретизация насыщенности : 4:2:0
Битовая глубина : 8 бит
Тип развёртки : Прогрессивная
Метод сжатия : С потерями
Бит/(Пиксели*Кадры) : 0.297
Размер потока : 1,32 Гбайт (91%)
Библиотека кодирования : XviD 65
Аудио
Идентификатор : 1
Формат : AC-3
Формат/Информация : Audio Coding 3
Расширение режима : CM (complete main)
Параметр Endianness формата : Big
Идентификатор кодека : 2000
Продолжительность : 1 ч. 34 м.
Вид битрейта : Постоянный
Битрейт : 192 Кбит/сек
Каналы : 2 канала
Расположение каналов : Front: L R
Частота : 48,0 КГц
Битовая глубина : 16 бит
Метод сжатия : С потерями
Размер потока : 129 Мбайт (9%)
Выравнивание : Разделение по промежуткам
Продолжительность промежутка : 42 мс. (1,00 видеокадр)
Время предзагрузки промежутка : 500 мс.

-
dsk71 писал(а):Дорожка TV1000 из личных "запасников", настоятельно советую смотреть именно в этом переводе. Перевод полностью адекватен и впридачу неплохой подбор голосов.kingsize87 писал(а):Данный перевод существует в AVC-раздаче Zurab и моем релизе 720p. В остальных раздачах перевод, который:dsk71 писал(а):Гуляет по сети с пометкой "Профессиональный", но это вряд ли. Перевод не плох, но голоса - это отдельная песня. Мужской голос вполне сносен, но женский - просто тихий ужас.kingsize87 писал(а):Вполне возможно он любительский.
[Профиль] [ЛС]

Создавать темы 06-Авг-2015 22:50 (спустя 6 месяцев 30 дней)

Топик был перенесен из форума Фильмы до 2014 года в форум Фильмы до 2012 года
sergej644
 

Создавать темы 12-Июн-2016 08:51 (спустя 1 год 5 месяцев)

Топик был перенесен из форума Фильмы 2011 года в форум Фильмы 2006-2008 года
Russian Mafia
 
Кто просматривает тему:

Показать сообщения:    

Текущее время: Сегодня 11:55

Часовой пояс: GMT



Вы не можете начинать темы
Вы не можете отвечать на сообщения
Вы не можете редактировать свои сообщения
Вы не можете удалять свои сообщения
Вы не можете голосовать в опросах
Вы не можете прикреплять файлы к сообщениям
Вы не можете скачивать файлы