Одна неделя / One Week (Майкл Макгоун / Michael McGowan) [2008, Канада, драма, приключения, BDRip-AVC] DVO (TV1000) + Original (Eng) + Sub (Rus, Eng)

 
Автор Сообщение

TorrentFilm ®

Пол:

Стаж: 1 год 11 месяцев

Сообщений: 7741



Награды: Нет

Торрент-статистика

Создавать темы 19-Дек-2014 02:00

[Цитировать]

Одна неделя / One Week-«What would you do?»-
Год выпуска: 2008
Страна: Канада
Жанр: драма, приключения
Продолжительность: 01:34:08
Перевод: Профессиональный (двухголосый закадровый) TV1000
Оригинальная аудиодорожка: английский
Cубтитры: русские, английские
Навигация по главам: есть-Режиссер: Майкл Макгоун / Michael McGowan
В ролях: Джошуа Джексон, Лиэн Балабан, Кэмпбелл Скотт, Райан Аллен, Джим Аннан, Крис Бенсон, Джоди Брукс, Кэролайн Кейв, Джим Кодрингтон, Горд Дауни
Описание: Когда Бену Тайлеру был диагностирован рак, небольшой шанс на излечение он сразу отверг, а стал собираться в своё последнее путешествие. Пересекая Канаду на мотоцикле он найдёт новых друзей, многое переосмыслит, вспомнит несбывшиеся мечты. А главное поймёт, что нельзя найти смысл своей жизни, не научившись сперва свою жизнь ценить.-IMDb: 7.1/10
КиноПоиск: 7.24/10-Сэмпл-Качество видео: BDRip-AVC | исходник One.Week.2008.1080i.BD-Remux.2хRus.Eng.HDCLUB
Формат: MKV
Видео кодек: AVC
Аудио кодек: AC3
Видео: x264, 1024x576 (16:9), 23.976, 3649kbps, 0.252 bit/pixel
Аудио 1: Russian AC3, 48kHz, 2ch, 192 kbps DVO TV1000
Аудио 2: English AC3, 48kHz, 6ch, 448 kbps Original
Формат субтитров: softsub (SRT)-

MediaInfo

Complete name : C:\...\One.Week.2008.x264.BDRip.ac3.Rus.Eng.subs.mkv
Format : Matroska
Format version : Version 4 / Version 2
File size : 2.82 GiB
Duration : 1h 34mn
Overall bit rate : 4 292 Kbps
Encoded date : UTC 2014-11-11 14:59:52
Writing application : mkvmerge v7.2.0 ('On Every Street') 64bit built on Sep 13 2014 15:52:10
Writing library : libebml v1.3.0 + libmatroska v1.4.1
Attachements : Cover.jpg
DURATION : 01:29:40.675000000
NUMBER_OF_FRAMES : 836
NUMBER_OF_BYTES : 31145
_STATISTICS_WRITING_APP : mkvmerge v7.2.0 ('On Every Street') 64bit built on Sep 13 2014 15:52:10
_STATISTICS_WRITING_DATE_UTC : 2014-11-11 14:59:52
_STATISTICS_TAGS : BPS DURATION NUMBER_OF_FRAMES NUMBER_OF_BYTES
Video
ID : 1
Format : AVC
Format/Info : Advanced Video Codec
Format profile : High@L4.1
Format settings, CABAC : Yes
Format settings, ReFrames : 10 frames
Codec ID : V_MPEG4/ISO/AVC
Duration : 1h 34mn
Bit rate : 3 567 Kbps
Width : 1 024 pixels
Height : 576 pixels
Display aspect ratio : 16:9
Frame rate mode : Constant
Frame rate : 23.976 fps
Color space : YUV
Chroma subsampling : 4:2:0
Bit depth : 8 bits
Scan type : Progressive
Bits/(Pixel*Frame) : 0.252
Stream size : 2.35 GiB (83%)
Writing library : x264 core 142 r2453kMod ea0ca51
Encoding settings : cabac=1 / ref=10 / deblock=1:-3:-3 / analyse=0x3:0x113 / me=umh / subme=11 / psy=1 / fade_compensate=0.00 / psy_rd=1.00:0.00 / mixed_ref=1 / me_range=32 / chroma_me=1 / trellis=2 / 8x8dct=1 / cqm=0 / deadzone=21,11 / fast_pskip=1 / chroma_qp_offset=-2 / threads=3 / lookahead_threads=1 / sliced_threads=0 / nr=0 / decimate=1 / interlaced=0 / bluray_compat=0 / constrained_intra=0 / fgo=0 / bframes=16 / b_pyramid=2 / b_adapt=2 / b_bias=0 / direct=1 / weightb=1 / open_gop=0 / weightp=2 / keyint=250 / keyint_min=23 / scenecut=40 / intra_refresh=0 / rc_lookahead=40 / rc=crf / mbtree=0 / crf=19.4000 / qcomp=0.65 / qpmin=0 / qpmax=69 / qpstep=4 / vbv_maxrate=50000 / vbv_bufsize=62500 / crf_max=0.0 / nal_hrd=none / filler=0 / ip_ratio=1.40 / pb_ratio=1.30 / aq=1:0.90 / zones=129522,135431,q=30
Language : English
Default : Yes
Forced : No
Matrix coefficients : BT.709
DURATION : 01:34:08.602000000
NUMBER_OF_FRAMES : 135431
NUMBER_OF_BYTES : 2576591486
_STATISTICS_WRITING_APP : mkvmerge v7.2.0 ('On Every Street') 64bit built on Sep 13 2014 15:52:10
_STATISTICS_WRITING_DATE_UTC : 2014-11-11 14:59:52
_STATISTICS_TAGS : BPS DURATION NUMBER_OF_FRAMES NUMBER_OF_BYTES
Audio #1
ID : 2
Format : AC-3
Format/Info : Audio Coding 3
Mode extension : CM (complete main)
Format settings, Endianness : Big
Codec ID : A_AC3
Duration : 1h 34mn
Bit rate mode : Constant
Bit rate : 192 Kbps
Channel(s) : 2 channels
Channel positions : Front: L R
Sampling rate : 48.0 KHz
Bit depth : 16 bits
Compression mode : Lossy
Stream size : 129 MiB (4%)
Title : DVO TV1000
Language : Russian
Default : Yes
Forced : No
Audio #2
ID : 3
Format : AC-3
Format/Info : Audio Coding 3
Mode extension : CM (complete main)
Format settings, Endianness : Big
Codec ID : A_AC3
Duration : 1h 34mn
Bit rate mode : Constant
Bit rate : 448 Kbps
Channel(s) : 6 channels
Channel positions : Front: L C R, Side: L R, LFE
Sampling rate : 48.0 KHz
Bit depth : 16 bits
Compression mode : Lossy
Stream size : 302 MiB (10%)
Title : Original
Language : English
Default : No
Forced : No
Text #1
ID : 4
Format : UTF-8
Codec ID : S_TEXT/UTF8
Codec ID/Info : UTF-8 Plain Text
Language : Russian
Default : Yes
Forced : No
Text #2
ID : 5
Format : UTF-8
Codec ID : S_TEXT/UTF8
Codec ID/Info : UTF-8 Plain Text
Language : English
Default : No
Forced : No
Menu
00:00:00.000 : :Chapter 01
00:05:00.299 : :Chapter 02
00:10:00.599 : :Chapter 03
00:15:00.898 : :Chapter 04
00:20:01.200 : :Chapter 05
00:25:01.500 : :Chapter 06
00:30:01.799 : :Chapter 07
00:35:02.099 : :Chapter 08
00:40:02.400 : :Chapter 09
00:45:02.699 : :Chapter 10
00:50:03.000 : :Chapter 11
00:55:03.300 : :Chapter 12
01:00:03.599 : :Chapter 13
01:05:03.900 : :Chapter 14
01:10:04.198 : :Chapter 15
01:15:04.500 : :Chapter 16
01:20:04.800 : :Chapter 17
01:25:05.100 : :Chapter 18
01:30:05.399 : :Chapter 19

Log x264

x264 [info]: 1024x576p 1:1 @ 24000/1001 fps (cfr)
x264 [info]: profile High, level 4.1
x264 [info]: cabac=1 ref=10 deblock=1:-3:-3 analyse=0x3:0x113 me=umh subme=11 psy=1 fade_compensate=0.00 psy_rd=1.00:0.00 mixed_ref=1 me_range=32 chroma_me=1 trellis=2 8x8dct=1 cqm=0 deadzone=21,11 fast_pskip=1 chroma_qp_offset=-2 threads=3 lookahead_threads=1 sliced_threads=0 nr=0 decimate=1 interlaced=0 bluray_compat=0 constrained_intra=0 fgo=0 bframes=16 b_pyramid=2 b_adapt=2 b_bias=0 direct=1 weightb=1 open_gop=0 weightp=2 keyint=250 keyint_min=23 scenecut=40 intra_refresh=0 rc_lookahead=40 rc=crf mbtree=0 crf=19.4000 qcomp=0.65 qpmin=0 qpmax=69 qpstep=4 vbv_maxrate=50000 vbv_bufsize=62500 crf_max=0.0 nal_hrd=none filler=0 ip_ratio=1.40 pb_ratio=1.30 aq=1:0.90 zones=129522,135431,q=30
x264 [info]: frame I:982 Avg QP:19.16 size: 81546
x264 [info]: frame P:22916 Avg QP:20.74 size: 33990
x264 [info]: frame B:111533 Avg QP:22.26 size: 15400
x264 [info]: consecutive B-frames: 1.1% 0.8% 2.8% 11.8% 15.7% 24.4% 17.3% 3.5% 6.5% 8.9% 1.0% 1.0% 0.7% 1.8% 0.6% 0.6% 1.6%
x264 [info]: mb I I16..4: 3.6% 84.9% 11.5%
x264 [info]: mb P I16..4: 0.3% 11.8% 0.6% P16..4: 29.9% 37.0% 13.4% 0.0% 0.0% skip: 7.0%
x264 [info]: mb B I16..4: 0.0% 1.9% 0.0% B16..8: 39.4% 20.9% 4.1% direct: 7.8% skip:25.8% L0:42.2% L1:47.8% BI:10.0%
x264 [info]: 8x8 transform intra:92.8% inter:57.4%
x264 [info]: coded y,uvDC,uvAC intra: 95.5% 53.7% 20.0% inter: 37.3% 14.3% 0.4%
x264 [info]: i16 v,h,dc,p: 51% 12% 10% 27%
x264 [info]: i8 v,h,dc,ddl,ddr,vr,hd,vl,hu: 6% 7% 12% 10% 14% 12% 14% 11% 13%
x264 [info]: i4 v,h,dc,ddl,ddr,vr,hd,vl,hu: 9% 8% 6% 9% 15% 14% 14% 11% 14%
x264 [info]: i8c dc,h,v,p: 31% 38% 18% 13%
x264 [info]: Weighted P-Frames: Y:7.1% UV:4.0%
x264 [info]: ref P L0: 43.5% 10.9% 18.5% 7.0% 5.4% 4.2% 3.6% 2.4% 2.1% 2.1% 0.2% 0.0%
x264 [info]: ref B L0: 72.7% 11.8% 5.9% 3.0% 2.3% 1.7% 1.6% 0.7% 0.3%
x264 [info]: ref B L1: 89.7% 10.3%
x264 [info]: kb/s:3649.17

Скриншоты

Сравнение

Source Encode
[Профиль] [ЛС]

Создавать темы 06-Авг-2015 22:54 (спустя 7 месяцев 18 дней)

Топик был перенесен из форума Фильмы до 2014 года в форум Фильмы до 2012 года
sergej644
 

Создавать темы 12-Июн-2016 08:51 (спустя 1 год 5 месяцев)

Топик был перенесен из форума Фильмы 2011 года в форум Фильмы 2006-2008 года
Russian Mafia
 
Кто просматривает тему:

Показать сообщения:    

Текущее время: Сегодня 22:32

Часовой пояс: GMT



Вы не можете начинать темы
Вы не можете отвечать на сообщения
Вы не можете редактировать свои сообщения
Вы не можете удалять свои сообщения
Вы не можете голосовать в опросах
Вы не можете прикреплять файлы к сообщениям
Вы не можете скачивать файлы