Одна на планете (Виктор Гундарев) 4 серии [2014, Документальный, HDTV 1080i] [Россия HD]

 
Автор Сообщение

TorrentFilm ®

Пол:

Стаж: 2 года

Сообщений: 7741



Награды: Нет

Торрент-статистика

Создавать темы 01-Янв-2015 00:00

[Цитировать]

Одна на планете
Год выпуска: 2014
Страна: Россия
Жанр: Документальный
Продолжительность: 00:51:00 серия
Перевод: Не требуется
Режиссер: Виктор Гундарев
Описание: В один из дней в конце сентября Анастасия Чернобровина купила билет в Неаполь, там села на первый попавшийся паром и отправилась на острова Неаполитанского залива, чтобы вновь и вновь остаться одной на планете. Остановить время. Подумать. Набраться сил. Забыть о суете и стрессе. Это нужно было писательнице Элизабет Гилберт, написавшей автобиографический роман «Есть, молиться, любить». Этого очень захотела наша ведущая Анастасия Чернобровина. Она "Одна на планете" путешествует в поисках самых уединённых мест, ищет самых интересных людей, встречается с мудрецами и дегустирует изысканные блюда.
Одна на планете. Вьетнам. Остров Фукуок
Одна на планете. Италия. Остров Искья
Одна на планете. Китай
Одна на планете. Курилы. Что-то хорошое
Одна на планете. Исландия. Женский род
Тип релиза: HDTV 1080i
Контейнер: TS
Видео: H264; 1920x1080 (16:9); 25.000 fps; ~7 811 Kbps
Аудио: MPEG Audio 48000Hz stereo 192 Кбит/сек

MediaInfo

GeneralID : 1 (0x1)Complete name : Q:\ДИСК-1\Одна на планете\Одна на планете. Вьетнам. Остров Фукуок.tsFormat : MPEG-TSFile size : 3.00 GiBDuration : 50mn 55sOverall bit rate mode : VariableOverall bit rate : 8 421 Kbps
VideoID : 2292 (0x8F4)Menu ID : 1 (0x1)Format : AVCFormat/Info : Advanced Video CodecFormat profile : High@L4.0Format settings, CABAC : YesFormat settings, ReFrames : 4 framesCodec ID : 27Duration : 50mn 55sBit rate : 7 811 KbpsWidth : 1 920 pixelsHeight : 1 080 pixelsDisplay aspect ratio : 16:9Frame rate : 25.000 fpsColor space : YUVChroma subsampling : 4:2:0Bit depth : 8 bitsScan type : MBAFFBits/(Pixel*Frame) : 0.151Stream size : 2.78 GiB (93%)
AudioID : 2295 (0x8F7)Menu ID : 1 (0x1)Format : MPEG AudioFormat version : Version 1Format profile : Layer 2Mode : Joint stereoMode extension : Intensity Stereo + MS StereoCodec ID : 3Duration : 50mn 55sBit rate mode : ConstantBit rate : 192 KbpsChannel(s) : 2 channelsSampling rate : 48.0 KHzCompression mode : LossyStream size : 69.9 MiB (2%)Language : English

Скриншоты

[Профиль] [ЛС]
Кто просматривает тему:

Показать сообщения:    

Текущее время: Сегодня 16:37

Часовой пояс: GMT



Вы не можете начинать темы
Вы не можете отвечать на сообщения
Вы не можете редактировать свои сообщения
Вы не можете удалять свои сообщения
Вы не можете голосовать в опросах
Вы не можете прикреплять файлы к сообщениям
Вы не можете скачивать файлы