Одна встреча / Une rencontre (2014) BDRip 720p | Лицензия

 
Автор Сообщение

sergej644 ®

Пол:

Стаж: 4 года 11 месяцев

Сообщений: 6042

Откуда: Soviet Union



Награды: Нет

Торрент-статистика

Создавать темы 09-Фев-2015 06:34

[Цитировать]

Одна встреча
Une rencontreГод выпуска: 2014
Страна: Франция
Жанр: драма, мелодрама
Продолжительность: 01:21:31
Перевод: Профессиональный (дублированный)
Субтитры: French (UTF-8)
Режиссер: Лиза Азуэлос

В ролях: Софи Марсо / Sophie Marceau (Elsa), Франсуа Клюзе / François Cluzet (Pierre), Лиза Азуэлос / Lisa Azuelos (Anne), Александр Астье / Alexandre Astier (Éric), Артур Бензакен / Arthur Benzaquen (Julien), Джонатан Коэн / Jonathan Cohen (Marc), Нильс Шнайдер / Niels Schneider (Hugo), Стефани Мурат / Stéphanie Murat (Valérie)
Описание: Случайная встреча семьянина с красивой женщиной порождает взаимное притяжение между ними…
Рейтинг MPAA: Лицам до 17 лет обязательно присутствие взрослого

Качество: BDRip
Формат: MKV
Видео кодек: H.264 (AVC)
Аудио кодеk: AC3
Видео: 1280x536 (2.40:1), 24.000 fps, AVC, 4826 Kbps
Аудио: Аудио #1: AC3, 448 Kbps, 48.0 KHz, 6 ch RUS Dub
Аудио #2: AC3, 640 Kbps, 48.0 KHz, 6 ch FRE

МедиаИнфо

General
Unique ID : 175762449367649808318518522695249451892 (0x843A9DCE97A91484B75EF2A17A8A5B74)
Complete name : Une.rencontre.2014.720p.BluRay.Rus.Fre.HDCLUB-SbR.mkv
Format : Matroska
Format version : Version 4 / Version 2
File size : 3.44 GiB
Duration : 1h 21mn
Overall bit rate : 6 034 Kbps
Encoded date : UTC 2014-09-26 17:03:18
Writing application : mkvmerge v6.9.0 ('On Duende') 64bit built on Apr 18 2014 12:57:54
Writing library : libebml v1.3.0 + libmatroska v1.4.1
Video
ID : 1
Format : AVC
Format/Info : Advanced Video Codec
Format profile : High@L4.1
Format settings, CABAC : Yes
Format settings, ReFrames : 12 frames
Codec ID : V_MPEG4/ISO/AVC
Duration : 1h 21mn
Bit rate : 4 826 Kbps
Width : 1 280 pixels
Height : 536 pixels
Display aspect ratio : 2.40:1
Frame rate mode : Constant
Frame rate : 24.000 fps
Color space : YUV
Chroma subsampling : 4:2:0
Bit depth : 8 bits
Scan type : Progressive
Bits/(Pixel*Frame) : 0.293
Stream size : 2.75 GiB (80%)
Writing library : x264 core 142 r2479kMod dd79a61
Encoding settings : cabac=1 / ref=12 / deblock=1:-3:-3 / analyse=0x3:0x133 / me=tesa / subme=9 / psy=1 / fade_compensate=0.00 / psy_rd=1.00:0.05 / mixed_ref=1 / me_range=24 / chroma_me=1 / trellis=2 / 8x8dct=1 / cqm=0 / deadzone=21,11 / fast_pskip=0 / chroma_qp_offset=-3 / threads=6 / lookahead_threads=1 / sliced_threads=0 / nr=0 / decimate=1 / interlaced=0 / bluray_compat=0 / constrained_intra=0 / fgo=0 / bframes=12 / b_pyramid=2 / b_adapt=2 / b_bias=0 / direct=3 / weightb=1 / open_gop=0 / weightp=2 / keyint=250 / keyint_min=24 / scenecut=40 / intra_refresh=0 / rc_lookahead=60 / rc=crf / mbtree=0 / crf=16.5000 / qcomp=0.70 / qpmin=0 / qpmax=69 / qpstep=4 / vbv_maxrate=62500 / vbv_bufsize=78125 / crf_max=0.0 / nal_hrd=none / filler=0 / ip_ratio=1.30 / pb_ratio=1.20 / aq=1:0.80
Language : English
Default : Yes
Forced : No
Matrix coefficients : BT.709
Audio #1
ID : 2
Format : AC-3
Format/Info : Audio Coding 3
Mode extension : CM (complete main)
Format settings, Endianness : Big
Codec ID : A_AC3
Duration : 1h 21mn
Bit rate mode : Constant
Bit rate : 448 Kbps
Channel(s) : 6 channels
Channel positions : Front: L C R, Side: L R, LFE
Sampling rate : 48.0 KHz
Bit depth : 16 bits
Compression mode : Lossy
Stream size : 261 MiB (7%)
Title : Дубляж, R5
Language : Russian
Default : Yes
Forced : No
Audio #2
ID : 3
Format : AC-3
Format/Info : Audio Coding 3
Mode extension : CM (complete main)
Format settings, Endianness : Big
Codec ID : A_AC3
Duration : 1h 21mn
Bit rate mode : Constant
Bit rate : 640 Kbps
Channel(s) : 6 channels
Channel positions : Front: L C R, Side: L R, LFE
Sampling rate : 48.0 KHz
Bit depth : 16 bits
Compression mode : Lossy
Stream size : 373 MiB (11%)
Language : French
Default : No
Forced : No
Text
ID : 4
Format : UTF-8
Codec ID : S_TEXT/UTF8
Codec ID/Info : UTF-8 Plain Text
Language : French
Default : No
Forced : No
Menu
00:00:00.000 : en:00:00:00.000
00:04:29.165 : en:00:04:29.165
00:09:35.957 : en:00:09:35.957
00:18:05.250 : en:00:18:05.250
00:21:21.583 : en:00:21:21.583
00:25:02.290 : en:00:25:02.290
00:32:27.125 : en:00:32:27.125
00:40:10.458 : en:00:40:10.458
00:49:19.083 : en:00:49:19.083
00:57:24.666 : en:00:57:24.666
01:08:58.832 : en:01:08:58.832
01:15:55.582 : en:01:15:55.582
Релиз от:
[Профиль] [ЛС]
Кто просматривает тему:

Показать сообщения:    

Текущее время: Сегодня 22:08

Часовой пояс: GMT



Вы не можете начинать темы
Вы не можете отвечать на сообщения
Вы не можете редактировать свои сообщения
Вы не можете удалять свои сообщения
Вы не можете голосовать в опросах
Вы не можете прикреплять файлы к сообщениям
Вы не можете скачивать файлы