Одна встреча / Une rencontre (Лиза Азуэлос / Lisa Azuelos.) [2014, Франция, драма, мелодрама, DVDRip] Dub

 
Автор Сообщение

painkiller ®

Стаж: 2 года 3 месяца

Сообщений: 582



Награды: Нет

Торрент-статистика

Создавать темы 26-Авг-2014 20:21

[Цитировать]

Одна встреча / Une rencontre- Страна: Франция
Жанр: драма, мелодрама
Год выпуска: 2014
Продолжительность: 01:18:40-Перевод: Профессиональный (дублированный)
Cубтитры: нет
Режиссер: Лиза Азуэлос / Lisa Azuelos.-В ролях: Софи Марсо, Франсуа Клюзе, Лиза Азуэлос, Александр Астье, Артур Бензакен, Джонатан Коэн, Нильс Шнайдер, Стефани Мурат, Оливия Коте, Сайрус Шахиди.-Описание: Случайная встреча семьянина с красивой женщиной порождает взаимное притяжение между ними… До встречи друг с другом Эльза и Пьер жили счастливыми, размеренными жизнями со своими семьями. Но знакомство переворачивает их судьбы с ног на голову. С первой же минуты их захватывает чувство настолько сильное, что они не могут ему противостоять.-КиноПоиск | IMDB | Семпл-Качество видео: DVDRip
Формат видео: AVI
Видео: 688x288 (2.39:1), 25 fps, XviD build 73 ~1186 kbps avg, 0.24 bit/pixel
Аудио: 48 kHz, MPEG Layer 3, 2 ch, ~128.00 kbps avg

MediaInfo

General
Complete name : E:\Одна встреча.(Logan1995).avi
Format : AVI
Format/Info : Audio Video Interleave
File size : 745 Мбайт
Duration : 1 ч. 18 м.
Overall bit rate : 1324 Кбит/сек
Writing application : VirtualDubMod 1.5.10.3 | www.virtualdub-fr.org || (build 2550/release)
Writing library : VirtualDubMod build 2550/release
Video
ID : 0
Format : MPEG-4 Visual
Format profile : Advanced Simple@L5
Format settings, BVOP : 1
Format settings, QPel : Нет
Format settings, GMC : Без точки перехода
Format settings, Matrix : Выборочная
Codec ID : XVID
Codec ID/Hint : XviD
Duration : 1 ч. 18 м.
Bit rate : 1187 Кбит/сек
Width : 688 пикс.
Height : 288 пикс.
Display aspect ratio : 2,35:1
Frame rate : 25,000 кадр/сек
Color space : YUV
Chroma subsampling : 4:2:0
Bit depth : 8 бит
Scan type : Прогрессивная
Compression mode : С потерями
Bits/(Pixel*Frame) : 0.240
Stream size : 668 Мбайт (90%)
Writing library : XviD 73
Audio
ID : 1
Format : MPEG Audio
Format version : Version 1
Format profile : Layer 3
Codec ID : 55
Codec ID/Hint : MP3
Duration : 1 ч. 18 м.
Bit rate mode : Постоянный
Bit rate : 128 Кбит/сек
Channel(s) : 2 канала(ов)
Sampling rate : 48,0 КГц
Compression mode : С потерями
Stream size : 72,0 Мбайт (10%)
Alignment : Соединение по промежуткам
Interleave, duration : 40 мс. (1,00 видеокадр)
Interleave, preload duration : 504 ms
Writing library : LAME3.99r
Encoding settings : -m s -V 4 -q 2 -lowpass 17 -b 128

Скриншоты

--
[Профиль] [ЛС]
Кто просматривает тему:

Показать сообщения:    

Текущее время: Сегодня 23:29

Часовой пояс: GMT



Вы не можете начинать темы
Вы не можете отвечать на сообщения
Вы не можете редактировать свои сообщения
Вы не можете удалять свои сообщения
Вы не можете голосовать в опросах
Вы не можете прикреплять файлы к сообщениям
Вы не можете скачивать файлы