Однажды в Ростове (2012) HDTV [1080i] (серии 1-24 из 24)

 
Автор Сообщение

достали все ®

Пол:

Стаж: 1 год 8 месяцев

Сообщений: 6571



Награды: 12 (Подробнее)

Mega Releaser 1 (Количество: 1) Mega Seeder 2 (Количество: 1) Mega Seeder 4 (Количество: 1)
Торрент-статистика

Создавать темы 24-Апр-2015 08:38

[Цитировать]

-Однажды в Ростове (2012) HDTV [H.264/1080i-LQ]- Производство: Россия / ООО "Продюсерский центр Сергея Жигунова"
Жанр: драма, криминал
Режиссер: Константин Худяков
Актеры: Сергей Жигунов, Владимир Вдовиченков, Виктор Раков, Алёна Бабенко, Кирилл Плетнев, Виталий Хаев, Михаил Евланов, Евгений Князев, Андрей Ильин, Константин Лавроненко, Сергей Тарамаев, Екатерина Климова, Юрий Беляев, Екатерина Никитина, Богдан Ступка и др.
Описание:
СССР, 2 июня 1962 года. После снижения заработной платы и повышения цен жители Новочеркасска вышли на мирную демонстрацию. Но страсти быстро накалились и привели к трагедии — расстрелу митингующих рабочих, несмотря на протесты генерала Шапошникова. Властям удается замять трагедию, у свидетелей берут подписку о неразглашении, а все несогласные получают тюремные сроки.
Это история о легендарной банде "фантомасов" Толстопятовых, державших в 60-е в страхе весь город, о расстреле голодного бунта в Новочеркасске и его последствиях для страны.

Качество видео: HDTV (1080i)
Продолжительность: ~00:45:00 серия
Видеокодек: MPEG-4 AVC
Битрейт видео: ~6936 kbps
Размер кадра: 1920x1080
Аудио#1: AC-3, 6 ch, 48.0 KHz, ~384 kbps (Rus)
Аудио#2: MP2, 2 ch, 48.0 KHz, ~192 kbps (Rus)

MediaInfo

Общее
Идентификатор                            : 1 (0x1)
Полное имя                               : D:\Однажды в Ростове HDTV 1080i\Odnajdy.v.Rostove.01.HDTV(1080i).ts
Формат                                   : MPEG-TS
Размер файла                             : 2,40 Гбайт
Продолжительность                        : 43 м.
Режим общего битрейта                    : Переменный
Общий поток                              : 7909 Кбит/сек
Видео
Идентификатор                            : 4121 (0x1019)
Идентификатор меню                       : 80 (0x50)
Формат                                   : AVC
Формат/Информация                        : Advanced Video Codec
Профиль формата                          : [url=mailto:Main@L4.0]Main@L4.0[/url]
Параметр CABAC формата                   : Да
Параметр ReFrames формата                : 3 кадра
Идентификатор кодека                     : 27
Продолжительность                        : 43 м.
Битрейт                                  : 6936 Кбит/сек
Ширина                                   : 1920 пикселей
Высота                                   : 1080 пикселей
Соотношение сторон                       : 16:9
Частота кадров                           : 25,000 кадров/сек
Стандарт вещания                         : Component
Цветовое пространство                    : YUV
Субдискретизация насыщенности            : 4:2:0
Битовая глубина                          : 8 бит
Тип развёртки                            : Чересстрочная
Порядок развёртки                        : Верхнее поле первое
Бит/(Пиксели*Кадры)                      : 0.134
Размер потока                            : 2,10 Гбайт (88%)
Основные цвета                           : BT.709
Характеристики трансфера                 : BT.709
Коэффициенты матрицы                     : BT.709
Аудио #1
Идентификатор                            : 4124 (0x101C)
Идентификатор меню                       : 80 (0x50)
Формат                                   : AC-3
Формат/Информация                        : Audio Coding 3
Расширение режима                        : CM (complete main)
Параметр Endianness формата              : Big
Идентификатор кодека                     : 6
Продолжительность                        : 43 м.
Вид битрейта                             : Постоянный
Битрейт                                  : 384 Кбит/сек
Каналы                                   : 6 каналов
Расположение каналов                     : Front: L C R, Side: L R, LFE
Частота                                  : 48,0 КГц
Битовая глубина                          : 16 бит
Метод сжатия                             : С потерями
Задержка видео                           : -120 мс.
Размер потока                            : 119 Мбайт (5%)
Язык                                     : Russian
Аудио #2
Идентификатор                            : 4125 (0x101D)
Идентификатор меню                       : 80 (0x50)
Формат                                   : MPEG Audio
Версия формата                           : Version 1
Профиль формата                          : Layer 2
Идентификатор кодека                     : 3
Продолжительность                        : 43 м.
Вид битрейта                             : Постоянный
Битрейт                                  : 192 Кбит/сек
Каналы                                   : 2 канала
Частота                                  : 48,0 КГц
Метод сжатия                             : С потерями
Задержка видео                           : -120 мс.
Размер потока                            : 59,6 Мбайт (2%)
Язык                                     : Russian
Скриншоты:
[Профиль] [ЛС]
Показать сообщения:    

Текущее время: Сегодня 02:20

Часовой пояс: GMT



Вы не можете начинать темы
Вы не можете отвечать на сообщения
Вы не можете редактировать свои сообщения
Вы не можете удалять свои сообщения
Вы не можете голосовать в опросах
Вы не можете прикреплять файлы к сообщениям
Вы не можете скачивать файлы