Однажды в Америке / Once Upon a Time in America (1984) BDRip [1080p]

 
Автор Сообщение

sergej644 ®

Пол:

Стаж: 4 года 11 месяцев

Сообщений: 6046

Откуда: Soviet Union



Награды: Нет

Торрент-статистика

Создавать темы 18-Окт-2014 21:43

[Цитировать]

-Однажды в Америке / Once Upon a Time in America (1984) BDRip- Год выпуска: 1984
Жанр: Драма, Криминал
Производство: Италия, США / The Ladd Company, Embassy International Pictures
Описание фильма:
В бурные двадцатые годы, когда Америка веселилась под звуки джаза и каждый бродяга мечтал стать миллионером, в трущобах Нью-Йорка встретились несколько отчаянных парней. Убирая с дороги конкурентов, безжалостно карая предателей и нагло проворачивая хитроумные аферы, они стали королями преступного мира золотой эры «сухого закона». Они поклялись отдать жизнь друг за друга, зная, что самое главное для них — это дружба, долг и справедливость — не утопить в реках крови и бездонном океане денег. Спустя много лет судьба жестоко обошлась с легендарными гангстерами, заставив их исполнить свою клятву. Это случилось однажды в Америке…
Режиссер: Серджио Леоне
Актеры: Роберт Де Ниро, Джеймс Вудс, Элизабет МакГоверн, Дарлэнн Флюгель, Ричард Брайт, Герард Мерфи, Ольга Карлатос, Марио Брега, Фрэнк Джио, Карен Шалло, Клем Касерта, Фрэнк Систо, Джерри Стривелли, Марвин Скотт (I), Пол Херман, Джои Фэй, Танди Кронин, Ричард Зобель
Продолжительность: 03:49:20
Качество видео: BDRip
Перевод: Многоголосый закадровый, Двуголосый закадровый, Одноголосый закадровый
Язык субтитров: Русский, Английский
Вид субтитров: Вшитые отключаемые

Видеокодек: MPEG-4 AVC/H.264
Битрейт видео: ~8523 kbps
Размер кадра: 1920 х 1080
Аудио 01: Русский, AC3 5.1, 640 kbps, 48 kHz (MVO, Позитив-Мультимедиа)
Аудио 02: Русский, AC3 5.1, 448 kbps, 48 kHz (MVO, Карусель/Киномания)
Аудио 03: Русский, AC3 5.1, 448 kbps, 48 kHz (MVO, НТВ+)
Аудио 04: Русский, AC3 5.1, 640 kbps, 48 kHz (DVO, П.Гланц и И.Королева)
Аудио 05: Русский, AC3 2.0, 192 kbps, 48 kHz (DVO, Конкин и Дама)
Аудио 06: Русский, AC3 2.0, 192 kbps, 48 kHz (AVO, О.Борисов)
Аудио 07: Русский, AC3 5.1, 640 kbps, 48 kHz (AVO, Ю.Сербин)
Аудио 08: Русский, AC3 5.1, 640 kbps, 48 kHz (AVO, Л.Володарский)
Аудио 09: Русский, AC3 5.1, 640 kbps, 48 kHz (AVO, Ю.Живов)
Аудио 10: Русский, AC3 2.0, 192 kbps, 48 kHz (AVO, А.Гаврилов (ранний перевод)
Аудио 11: Русский, AC3 2.0, 192 kbps, 48 kHz (AVO, А.Гаврилов (поздний перевод)
Аудио 12: Русский, AC3 2.0, 192 kbps, 48 kHz (AVO, А.Михалев)
Аудио 13: Русский, AC3 2.0, 192 kbps, 48 kHz (AVO, В.Горчаков)
Аудио 14: Русский, AC3 5.1, 640 kbps, 48 kHz (Оригинал)
Сэмпл: Ссылка

Награды:

Золотой глобус, 1985 год
Номинации (2):
Лучший режиссер (Серджио Леоне)
Лучший саундтрек
Британская академия, 1985 год
Победитель (2):
Лучшие костюмы
Лучший саундтрек
Номинации (3):
Лучшая женская роль второго плана (Тьюзди Уэлд)
Лучший режиссер (Серджио Леоне)
Лучшая работа оператора

Знаете ли вы, что...

• Фильм снят по мотивам романа Гарри Грэя «Однажды в Америке» (The Hoods, 1952).
• Один из актеров, Джеймс Хейден, скончался незадолго до премьеры.
• Сцены на морском берегу Майами-Бич были сняты в городе Сент-Питерсберг на пляже «Дон Сезар».
• «Однажды в Америке» — это единственный фильм Серджио Леоне, снятый не в его излюбленном экранном формате 2,35:1.
• Фильм стал дебютом в кино для 14-летней модели Дженнифер Коннелли.
• В сцене, когда пожилой «Лапша» смотрит телевизор, по нему показывают интервью с персонажем по имени Джеймс Конуэй О`Доннэлл. В фильме «Славные парни» (1990) персонажа Роберта Де Ниро также зовут Джеймс Конуэй.
• В ходе подготовки к роли «Лапши» Роберт Де Ниро попросил о личной встрече со знаменитым криминальным боссом Мейером Лански, на образ которого он ориентировался. Увы, в этой встрече ему было отказано.
• На роль Кэрол безрезультатно претендовала актриса Клаудиа Кардинале.
• Роберт Де Ниро предложил, чтобы стареющий Макс обладал ослепительной улыбкой белоснежных зубов — это должно было продемонстрировать его богатство и тщеславие. • Продюсеры отказались оплачивать связанные с этим расходы, и Де Ниро взял их на себя.
• Первоначально Серджио Леоне вдохновила автобиографическая новелла «The Hoods» Гарри Грэя (на добывание авторских прав на неё у режиссёра ушли годы), но затем, по мере роста масштабности замысла, он привлёк в ряды сценаристов Нормана Мейлера и Стюарта Каминского.
• Когда Стюарт Каминский приступил к работе, ему вручили описание сюжетной линии фильма, превышавшее по объёму 400 страниц. В ходе работы над фильмом 10-часовой отснятый материал был урезан до 6 часов. Поначалу Серджио Леоне хотел выпустить свою картину в виде двух трёхчасовых серий, но киностудия не оценила этой идеи. До нынешнего объёма фильм сократил новый монтажёр, Зэк Стэнберг, специально приглашённый для этой цели в съемочную группу.
• Отель, в который разбогатевший Лапша пригласил Дебору, снимался в Венеции. При этом дорога, по которой они возвращались домой, находилась на другом берегу океана — на побережье Нью-Джерси. Роль шофёра сыграл продюсер фильма Арнон Милчэн.
• В середине 70-х годов одним из основных претендентов на роль «Макса» или «Лапши» был Жерар Депардье, который пообещал в случае необходимости выработать у себя американский акцент. В общей сложности в обойму кандидатов на главные роли входило свыше 200 актёров!
• Одним из претендентов на роль Макса был друг Роберта Де Ниро, Джо Пеши. После неудачной пробы Джо режиссёр предложил ему выбрать любую роль в фильме, какая только ему понравится — так Пеши сыграл Фрэнки.
• Эту картину так и не показали в кинотеатрах США в полном объеме, так как тогда считалось, что зрители не пойдут на столь долгий (227 минут) фильм. Поэтому Леоне заставили сократить версию фильма до 139 минут, убрав оттуда к тому же всю жестокость. Однако позже на DVD в США вышла полная версия длиной в 229 минут.
• Один из героев фильма, которого все зовут Косой, постоянно играет на маленькой флейте «Пано». Это отсылка на героя Чарльза Бронсона из другого фильма Леоне — «Однажды на Диком Западе» (1968), который тоже постоянно играл, но только на губной гармошке.
• Фильм был выпущен в советский кинопрокат в 1989 году в трёх сериях, раздельно. Первую серию посмотрели 27,6 млн. зрителей, вторую — 26,6 млн., третью — 23,1 млн. человек.
-

MediaInfo:

Общее
Уникальный идентификатор                 : 210947934236525274842701054144077934517 (0x9EB31825B384C672B1E84EF0FD3CAFB5)
Полное имя                               : D:\Films\Once.Upon.a.Time.in.America.1984.BDRip.1080p.mkv
Формат                                   : Matroska
Версия формата                           : Version 2
Размер файла                             : 23,1 Гбайт
Продолжительность                        : 3 ч. 49 м.
Общий поток                              : 14,4 Мбит/сек
Дата кодирования                         : UTC 2014-05-24 14:29:42
Программа кодирования                    : mkvmerge v5.2.0 ('I can't explain') built on Dec 18 2011 18:12:03
Библиотека кодирования                   : libebml v1.2.3 + libmatroska v1.3.0
Видео
Идентификатор                            : 1
Формат                                   : AVC
Формат/Информация                        : Advanced Video Codec
Профиль формата                          : [url=mailto:High@L4.1]High@L4.1[/url]
Параметр CABAC формата                   : Да
Параметр ReFrames формата                : 4 кадра
Идентификатор кодека                     : V_MPEG4/ISO/AVC
Продолжительность                        : 3 ч. 49 м.
Битрейт                                  : 8523 Кбит/сек
Ширина                                   : 1920 пикселей
Высота                                   : 1080 пикселей
Соотношение сторон                       : 16:9
Режим частоты кадров                     : Постоянный
Частота кадров                           : 23,976 кадра/сек
Цветовое пространство                    : YUV
Субдискретизация насыщенности            : 4:2:0
Битовая глубина                          : 8 бит
Тип развёртки                            : Прогрессивная
Бит/(Пиксели*Кадры)                      : 0.171
Размер потока                            : 13,2 Гбайт (57%)
Библиотека кодирования                   : x264 core 138 r2358 9e941d1
Настройки программы                      : cabac=1 / ref=4 / deblock=1:-3:-3 / analyse=0x3:0x133 / me=umh / subme=11 / psy=1 / psy_rd=1.00:0.15 / mixed_ref=1 / me_range=48 / chroma_me=1 / trellis=2 / 8x8dct=1 / cqm=0 / deadzone=21,11 / fast_pskip=0 / chroma_qp_offset=-3 / threads=6 / lookahead_threads=1 / sliced_threads=0 / nr=0 / decimate=1 / interlaced=0 / bluray_compat=0 / constrained_intra=0 / bframes=8 / b_pyramid=2 / b_adapt=2 / b_bias=0 / direct=3 / weightb=1 / open_gop=0 / weightp=2 / keyint=240 / keyint_min=23 / scenecut=40 / intra_refresh=0 / rc=2pass / mbtree=0 / bitrate=8523 / ratetol=1.0 / qcomp=0.60 / qpmin=0 / qpmax=69 / qpstep=4 / cplxblur=20.0 / qblur=0.5 / ip_ratio=1.40 / pb_ratio=1.30 / aq=1:0.90
Язык                                     : English
Default                                  : Да
Forced                                   : Нет
Аудио #1
Идентификатор                            : 2
Формат                                   : AC-3
Формат/Информация                        : Audio Coding 3
Расширение режима                        : CM (complete main)
Параметр Endianness формата              : Big
Идентификатор кодека                     : A_AC3
Продолжительность                        : 3 ч. 49 м.
Вид битрейта                             : Постоянный
Битрейт                                  : 640 Кбит/сек
Каналы                                   : 6 каналов
Расположение каналов                     : Front: L C R, Side: L R, LFE
Частота                                  : 48,0 КГц
Битовая глубина                          : 16 бит
Метод сжатия                             : С потерями
Размер потока                            : 1,03 Гбайт (4%)
Заголовок                                : MVO Позитив-Мультимедиа
Язык                                     : Russian
Default                                  : Да
Forced                                   : Нет
Аудио #2
Идентификатор                            : 3
Формат                                   : AC-3
Формат/Информация                        : Audio Coding 3
Расширение режима                        : CM (complete main)
Параметр Endianness формата              : Big
Идентификатор кодека                     : A_AC3
Продолжительность                        : 3 ч. 49 м.
Вид битрейта                             : Постоянный
Битрейт                                  : 448 Кбит/сек
Каналы                                   : 6 каналов
Расположение каналов                     : Front: L C R, Side: L R, LFE
Частота                                  : 48,0 КГц
Битовая глубина                          : 16 бит
Метод сжатия                             : С потерями
Размер потока                            : 735 Мбайт (3%)
Заголовок                                : MVO Карусель/Киномания
Язык                                     : Russian
Default                                  : Нет
Forced                                   : Нет
Аудио #3
Идентификатор                            : 4
Формат                                   : AC-3
Формат/Информация                        : Audio Coding 3
Расширение режима                        : CM (complete main)
Параметр Endianness формата              : Big
Идентификатор кодека                     : A_AC3
Продолжительность                        : 3 ч. 49 м.
Вид битрейта                             : Постоянный
Битрейт                                  : 448 Кбит/сек
Каналы                                   : 6 каналов
Расположение каналов                     : Front: L C R, Side: L R, LFE
Частота                                  : 48,0 КГц
Битовая глубина                          : 16 бит
Метод сжатия                             : С потерями
Размер потока                            : 735 Мбайт (3%)
Заголовок                                : MVO НТВ+
Язык                                     : Russian
Default                                  : Нет
Forced                                   : Нет
Аудио #4
Идентификатор                            : 5
Формат                                   : AC-3
Формат/Информация                        : Audio Coding 3
Расширение режима                        : CM (complete main)
Параметр Endianness формата              : Big
Идентификатор кодека                     : A_AC3
Продолжительность                        : 3 ч. 49 м.
Вид битрейта                             : Постоянный
Битрейт                                  : 640 Кбит/сек
Каналы                                   : 6 каналов
Расположение каналов                     : Front: L C R, Side: L R, LFE
Частота                                  : 48,0 КГц
Битовая глубина                          : 16 бит
Метод сжатия                             : С потерями
Размер потока                            : 1,03 Гбайт (4%)
Заголовок                                : DVO П.Гланц и И.Королева
Язык                                     : Russian
Default                                  : Нет
Forced                                   : Нет
Аудио #5
Идентификатор                            : 6
Формат                                   : AC-3
Формат/Информация                        : Audio Coding 3
Расширение режима                        : CM (complete main)
Параметр Endianness формата              : Big
Идентификатор кодека                     : A_AC3
Продолжительность                        : 3 ч. 49 м.
Вид битрейта                             : Постоянный
Битрейт                                  : 192 Кбит/сек
Каналы                                   : 2 канала
Расположение каналов                     : Front: L R
Частота                                  : 48,0 КГц
Битовая глубина                          : 16 бит
Метод сжатия                             : С потерями
Размер потока                            : 315 Мбайт (1%)
Заголовок                                : DVO Конкин и Дама
Язык                                     : Russian
Default                                  : Нет
Forced                                   : Нет
Аудио #6
Идентификатор                            : 7
Формат                                   : AC-3
Формат/Информация                        : Audio Coding 3
Расширение режима                        : CM (complete main)
Параметр Endianness формата              : Big
Идентификатор кодека                     : A_AC3
Продолжительность                        : 3 ч. 49 м.
Вид битрейта                             : Постоянный
Битрейт                                  : 192 Кбит/сек
Каналы                                   : 2 канала
Расположение каналов                     : Front: L R
Частота                                  : 48,0 КГц
Битовая глубина                          : 16 бит
Метод сжатия                             : С потерями
Размер потока                            : 315 Мбайт (1%)
Заголовок                                : AVO О.Борисов
Язык                                     : Russian
Default                                  : Нет
Forced                                   : Нет
Аудио #7
Идентификатор                            : 8
Формат                                   : AC-3
Формат/Информация                        : Audio Coding 3
Расширение режима                        : CM (complete main)
Параметр Endianness формата              : Big
Идентификатор кодека                     : A_AC3
Продолжительность                        : 3 ч. 49 м.
Вид битрейта                             : Постоянный
Битрейт                                  : 640 Кбит/сек
Каналы                                   : 6 каналов
Расположение каналов                     : Front: L C R, Side: L R, LFE
Частота                                  : 48,0 КГц
Битовая глубина                          : 16 бит
Метод сжатия                             : С потерями
Размер потока                            : 1,03 Гбайт (4%)
Заголовок                                : AVO Ю.Сербин
Язык                                     : Russian
Default                                  : Нет
Forced                                   : Нет
Аудио #8
Идентификатор                            : 9
Формат                                   : AC-3
Формат/Информация                        : Audio Coding 3
Расширение режима                        : CM (complete main)
Параметр Endianness формата              : Big
Идентификатор кодека                     : A_AC3
Продолжительность                        : 3 ч. 49 м.
Вид битрейта                             : Постоянный
Битрейт                                  : 640 Кбит/сек
Каналы                                   : 6 каналов
Расположение каналов                     : Front: L C R, Side: L R, LFE
Частота                                  : 48,0 КГц
Битовая глубина                          : 16 бит
Метод сжатия                             : С потерями
Размер потока                            : 1,03 Гбайт (4%)
Заголовок                                : AVO Л.Володарский
Язык                                     : Russian
Default                                  : Нет
Forced                                   : Нет
Аудио #9
Идентификатор                            : 10
Формат                                   : AC-3
Формат/Информация                        : Audio Coding 3
Расширение режима                        : CM (complete main)
Параметр Endianness формата              : Big
Идентификатор кодека                     : A_AC3
Продолжительность                        : 3 ч. 49 м.
Вид битрейта                             : Постоянный
Битрейт                                  : 640 Кбит/сек
Каналы                                   : 6 каналов
Расположение каналов                     : Front: L C R, Side: L R, LFE
Частота                                  : 48,0 КГц
Битовая глубина                          : 16 бит
Метод сжатия                             : С потерями
Размер потока                            : 1,03 Гбайт (4%)
Заголовок                                : AVO Ю.Живов
Язык                                     : Russian
Default                                  : Нет
Forced                                   : Нет
Аудио #10
Идентификатор                            : 11
Формат                                   : AC-3
Формат/Информация                        : Audio Coding 3
Расширение режима                        : CM (complete main)
Параметр Endianness формата              : Big
Идентификатор кодека                     : A_AC3
Продолжительность                        : 3 ч. 49 м.
Вид битрейта                             : Постоянный
Битрейт                                  : 192 Кбит/сек
Каналы                                   : 2 канала
Расположение каналов                     : Front: L R
Частота                                  : 48,0 КГц
Битовая глубина                          : 16 бит
Метод сжатия                             : С потерями
Размер потока                            : 315 Мбайт (1%)
Заголовок                                : AVO А.Гаврилов (ранний перевод)
Язык                                     : Russian
Default                                  : Нет
Forced                                   : Нет
Аудио #11
Идентификатор                            : 12
Формат                                   : AC-3
Формат/Информация                        : Audio Coding 3
Расширение режима                        : CM (complete main)
Параметр Endianness формата              : Big
Идентификатор кодека                     : A_AC3
Продолжительность                        : 3 ч. 49 м.
Вид битрейта                             : Постоянный
Битрейт                                  : 192 Кбит/сек
Каналы                                   : 2 канала
Расположение каналов                     : Front: L R
Частота                                  : 48,0 КГц
Битовая глубина                          : 16 бит
Метод сжатия                             : С потерями
Размер потока                            : 315 Мбайт (1%)
Заголовок                                : AVO А.Гаврилов (поздний перевод)
Язык                                     : Russian
Default                                  : Нет
Forced                                   : Нет
Аудио #12
Идентификатор                            : 13
Формат                                   : AC-3
Формат/Информация                        : Audio Coding 3
Расширение режима                        : CM (complete main)
Параметр Endianness формата              : Big
Идентификатор кодека                     : A_AC3
Продолжительность                        : 3 ч. 49 м.
Вид битрейта                             : Постоянный
Битрейт                                  : 192 Кбит/сек
Каналы                                   : 2 канала
Расположение каналов                     : Front: L R
Частота                                  : 48,0 КГц
Битовая глубина                          : 16 бит
Метод сжатия                             : С потерями
Размер потока                            : 315 Мбайт (1%)
Заголовок                                : AVO А.Михалев
Язык                                     : Russian
Default                                  : Нет
Forced                                   : Нет
Аудио #13
Идентификатор                            : 14
Формат                                   : AC-3
Формат/Информация                        : Audio Coding 3
Расширение режима                        : CM (complete main)
Параметр Endianness формата              : Big
Идентификатор кодека                     : A_AC3
Продолжительность                        : 3 ч. 49 м.
Вид битрейта                             : Постоянный
Битрейт                                  : 192 Кбит/сек
Каналы                                   : 2 канала
Расположение каналов                     : Front: L R
Частота                                  : 48,0 КГц
Битовая глубина                          : 16 бит
Метод сжатия                             : С потерями
Размер потока                            : 315 Мбайт (1%)
Заголовок                                : AVO В.Горчаков
Язык                                     : Russian
Default                                  : Нет
Forced                                   : Нет
Аудио #14
Идентификатор                            : 15
Формат                                   : AC-3
Формат/Информация                        : Audio Coding 3
Расширение режима                        : CM (complete main)
Параметр Endianness формата              : Big
Идентификатор кодека                     : A_AC3
Продолжительность                        : 3 ч. 49 м.
Вид битрейта                             : Постоянный
Битрейт                                  : 640 Кбит/сек
Каналы                                   : 6 каналов
Расположение каналов                     : Front: L C R, Side: L R, LFE
Частота                                  : 48,0 КГц
Битовая глубина                          : 16 бит
Метод сжатия                             : С потерями
Размер потока                            : 1,03 Гбайт (4%)
Заголовок                                : Original
Язык                                     : English
Default                                  : Нет
Forced                                   : Нет
Текст #1
Идентификатор                            : 16
Формат                                   : UTF-8
Идентификатор кодека                     : S_TEXT/UTF8
Идентификатор кодека/Информация          : UTF-8 Plain Text
Язык                                     : Russian
Default                                  : Нет
Forced                                   : Нет
Текст #2
Идентификатор                            : 17
Формат                                   : UTF-8
Идентификатор кодека                     : S_TEXT/UTF8
Идентификатор кодека/Информация          : UTF-8 Plain Text
Заголовок                                : SDH
Язык                                     : English
Default                                  : Нет
Forced                                   : Нет
Меню
00:00:00.000                             : en:00:00:00.000
00:02:23.351                             : en:00:02:23.351
00:05:44.677                             : en:00:05:44.677
00:11:29.855                             : en:00:11:29.855
00:13:45.825                             : en:00:13:45.825
00:18:04.208                             : en:00:18:04.208
00:20:05.203                             : en:00:20:05.203
00:21:57.274                             : en:00:21:57.274
00:25:09.883                             : en:00:25:09.883
00:35:03.267                             : en:00:35:03.267
00:41:40.206                             : en:00:41:40.206
00:43:40.743                             : en:00:43:40.743
00:44:46.975                             : en:00:44:46.975
00:46:23.697                             : en:00:46:23.697
00:48:56.683                             : en:00:48:56.683
00:52:33.108                             : en:00:52:33.108
00:55:47.469                             : en:00:55:47.469
01:00:05.476                             : en:01:00:05.476
01:03:44.862                             : en:01:03:44.862
01:07:50.775                             : en:01:07:50.775
01:11:03.300                             : en:01:11:03.300
01:16:19.574                             : en:01:16:19.574
01:21:30.677                             : en:01:21:30.677
01:24:06.332                             : en:01:24:06.332
01:27:19.984                             : en:01:27:19.984
01:29:32.867                             : en:01:29:32.867
01:33:47.455                             : en:01:33:47.455
01:36:12.933                             : en:01:36:12.933
01:38:21.604                             : en:01:38:21.604
01:44:06.323                             : en:01:44:06.323
01:47:50.881                             : en:01:47:50.881
01:53:18.625                             : en:01:53:18.625
01:56:31.067                             : en:01:56:31.067
01:58:27.141                             : en:01:58:27.141
02:00:15.249                             : en:02:00:15.249
02:02:54.950                             : en:02:02:54.950
02:05:33.734                             : en:02:05:33.734
02:11:00.644                             : en:02:11:00.644
02:18:38.518                             : en:02:18:38.518
02:26:21.105                             : en:02:26:21.105
02:31:31.082                             : en:02:31:31.082
02:33:41.086                             : en:02:33:41.086
02:38:49.061                             : en:02:38:49.061
02:40:27.993                             : en:02:40:27.993
02:41:29.680                             : en:02:41:29.680
02:47:37.088                             : en:02:47:37.088
02:49:39.669                             : en:02:49:39.669
02:54:23.286                             : en:02:54:23.286
02:59:03.733                             : en:02:59:03.733
03:03:24.660                             : en:03:03:24.660
03:08:16.535                             : en:03:08:16.535
03:12:01.551                             : en:03:12:01.551
03:17:11.736                             : en:03:17:11.736
03:23:48.966                             : en:03:23:48.966
03:25:49.086                             : en:03:25:49.086
03:31:45.692                             : en:03:31:45.692
03:37:44.384                             : en:03:37:44.384
03:41:29.526                             : en:03:41:29.526
03:44:31.666                             : en:03:44:31.666
-Скриншоты:
-Время раздачи: С 8:00 до 22:00 до 5 скачавших
[Профиль] [ЛС]
Кто просматривает тему:

Форум Тема Автор Размер
Фильмы (HD Rips | 720p, 1080p) Однажды (2015) WEB-DL 720p | iTunes достали все 3.14 GB
Фильмы 2015 года Однажды (Ренат Давлетьяров) [2015, комедии, приключения] WEB-DLRip | iTunes BOSS 1.37 GB
R.G.TorrentFilm Video Однажды (Ренат Давлетьяров) [2015, Комедия, приключения, WEB-DLRip] Один 777 747 MB
Фильмы (HD Rips | 720p, 1080p) Однажды / Once (2006) BDRip 720p от Leonardo and Scarabey sergej644 3.22 GB
Фильмы (HD Rips | 720p, 1080p) Однажды в Америке / Once Upon a Time in America (Серджо Леоне)[1984, драма, криминал, BDRip] 720p | AVO sergej644 24.5 GB
Фильмы (HD Rips | 720p, 1080p) Однажды в Анатолии / Bir Zamanlar Anadolu'da / Once Upon a Time in Anatolia (2011) BDRip 720p от Leonardo | P Russian Mafia 4.11 GB
Фильмы 2009 года Однажды в Версале / Скамейка Версальского парка / Bancs publics / Versailles rive droite (Бруно Подалидес / Bruno Podalydes) [2009, Франция, комедия, DVDRip] MVO TorrentFilm 1.46 GB
Фильмы 2009 года Однажды в Версале / Скамейка Версальского парка / Bancs publics / Versailles rive droite (Бруно Подалидес / Bruno Podalydes) [2009, Франция, комедия, DVDRip] MVO + Sub rus + original fre TorrentFilm 2.18 GB
Показать сообщения:    

Текущее время: Сегодня 10:15

Часовой пояс: GMT



Вы не можете начинать темы
Вы не можете отвечать на сообщения
Вы не можете редактировать свои сообщения
Вы не можете удалять свои сообщения
Вы не можете голосовать в опросах
Вы не можете прикреплять файлы к сообщениям
Вы не можете скачивать файлы