Одиссея обелиска / L'Odyssée de L'obélisque (The Odyssey of the obelisk) (Olivier Lemaitre) [2014 г., Документальный, постановочный, история, SATRip]

 
Автор Сообщение

skorpionN ®

Пол:

Стаж: 1 год 8 месяцев

Сообщений: 591



Награды: 4 (Подробнее)

Mega Seeder 3 (Количество: 1) Top Releaser 2 (Количество: 1) Mega Seeder 2 (Количество: 1)
Торрент-статистика

Создавать темы 04-Июн-2016 16:43

[Цитировать]

Одиссея обелиска / L'Odyssée de L'obélisque (The Odyssey of the obelisk)
Год выпуска: 2014
Страна: Франция, S'equana Media
Жанр: Документальный, постановочный, история
Продолжительность: 00:51:46
Перевод: Профессиональный (одноголосый), компания "Видеофильм ТВ"
Режиссер: Olivier Lemaitre
Описание: 25 октября 1836 года главное событие осени: весь Париж столпился у Площади Согласия и близлежащих домах. Король Франции Луи - Филипп с нетерпением ждёт завершения сложных манёвров, венчающих операцию начатую шестью годами ранее в далёком Египте. Впервые египетский обелиск будет установлен в центре Парижа. Но как удалось провести по морям и рекам монолитную глыбу весом 220 т.? Экспедиция, задуманная Шампольоном, стремившегося опередить англичан в борьбе за египетские сокровища, встретила на своём пути множество опасностей.
Благодаря дневниковым записям членов команды мы можем воспроизвести это путешествие от Нила до Сены. Удивительные макеты помогут нам воссоздать этот подвиг человека и техники. Гигантский гранитный блок был высечен более 3000 лет назад у нильских порогов, украшен золотым навершием и предназначался для храма бога Амона в Луксоре. Точное назначение крупных египетских обелисков и сам механизм их установки до сих пор окружён тайнами. Что могут рассказать нам египетские иероглифы? От мавзолея Рамсеса II до Площади Согласия западный обелиск Луксорского храма прожил 2 жизни. Путешествие сквозь две цивилизации - ОДИССЕЯ ОБЕЛИСКА.
Качество: SATRip
Формат: AVI
Видео кодек: XviD
Аудио кодек: AC3
Видео: 720x400 25fps ~1800 Kbps
Аудио: AC3 2ch, 48kHz, 192 kbps

Скриншоты


MediaInfo:

Format : AVI
Format/Info : Audio Video Interleave
File size : 740 MiB
Duration : 51mn 46s
Overall bit rate : 2 000 Kbps
Writing application : VirtualDubMod 1.5.10.3 | www.virtualdub-fr.org || (build 2550/release)
Writing library : VirtualDubMod build 2550/release
Video
ID : 0
Format : MPEG-4 Visual
Format profile : Advanced Simple@L5
Format settings, BVOP : Yes
Format settings, QPel : No
Format settings, GMC : No warppoints
Format settings, Matrix : Default (H.263)
Codec ID : XVID
Codec ID/Hint : XviD
Duration : 51mn 46s
Bit rate : 1 798 Kbps
Width : 720 pixels
Height : 400 pixels
Display aspect ratio : 16:9
Frame rate : 25.000 fps
Color space : YUV
Chroma subsampling : 4:2:0
Bit depth : 8 bits
Scan type : Progressive
Compression mode : Lossy
Bits/(Pixel*Frame) : 0.250
Stream size : 666 MiB (90%)
Writing library : XviD 67
Audio
ID : 1
Format : AC-3
Format/Info : Audio Coding 3
Mode extension : CM (complete main)
Format settings, Endianness : Big
Codec ID : 2000
Duration : 51mn 46s
Bit rate mode : Constant
Bit rate : 192 Kbps
Channel(s) : 2 channels
Channel positions : Front: L R
Sampling rate : 48.0 KHz
Bit depth : 16 bits
Compression mode : Lossy
Stream size : 71.1 MiB (10%)
Alignment : Split accross interleaves
Interleave, duration : 40 ms (1.00 video frame)
Interleave, preload duration : 500 ms
[Профиль] [ЛС]
Кто просматривает тему:

Форум Тема Автор Размер
Зарубежные сериалы Американская одиссея / American Odyssey [S01] (2015) WEB-DLRip | LostFilm достали все 6.78 GB
Доисторический мир Великая одиссея человечества / Great Human Odyssey [серии 1-3 из 3] (Найоб Томпсон) [2015 г., Документальный, история, SATRip] skorpionN 2.2 GB
Доисторический мир Великая одиссея человечества / Great Human Odyssey [серии 1-3 из 3] (Найоб Томпсон) [2015 г., Документальный, история, археология, WEB-DLRip 720p] skorpionN 4.68 GB
Фильмы 2010 года Лапландская одиссея / Lapland Odyssey / Napapiirin sankarit (Доме Карукоски / Dome Karukoski) [2010, Швеция, Финляндия, Исландия, драма, мелодрама, комедия, HDRip] MVO (Культура) painkiller 1.46 GB
Фантастика и фэнтези Лысак Сергей - Кортес 1. Одиссея адмирала (2016) MP3 Swager 311 MB
Фильмы 2011 года Одиссей / The Odyssey (1997) DVDRip | Режиссёрская версия Russian Mafia 2.18 GB
Фильмы 2011 года Одиссей / Одиссея / The Odyssey (1997) DVDRip Russian Mafia 1.46 GB
Зарубежное кино (CAMRip, Telesynch, SCR) Одиссея / L'odyssée (2016) CAMRip | D BOSS 1.46 GB
Показать сообщения:    

Текущее время: Сегодня 07:14

Часовой пояс: GMT



Вы не можете начинать темы
Вы не можете отвечать на сообщения
Вы не можете редактировать свои сообщения
Вы не можете удалять свои сообщения
Вы не можете голосовать в опросах
Вы не можете прикреплять файлы к сообщениям
Вы не можете скачивать файлы