Одиссей / The Odyssey (Андрей Кончаловский) [1997 г., фэнтези, драма, приключения, история, DVDRip-AVC] [MVO] [Full Director's Cut Version]

 
Автор Сообщение

Bathory ®

Пол:

Стаж: 1 год 5 месяцев

Сообщений: 281



Награды: 3 (Подробнее)

Друг (Количество: 1) Girls (Количество: 1) За внесенный вклад в развитие сайта (Количество: 1)
Торрент-статистика

Создавать темы 05-Авг-2017 07:52

[Цитировать]

Одиссей / The Odyssey- Информация о фильме
Название: Одиссей | Одиссея
Оригинальное название: The Odyssey | Full Director's Cut Version
Год выхода: 1997
Жанр: фэнтези, драма, приключения, история
Режиссер: Андрей Кончаловский
В ролях: Арманд Ассанте, Грета Скакки, Изабелла Росселлини, Бернадетт Питерс, Эрик Робертс, Ирен Папас, Ерун Краббе, Джеральдин Чаплин, Кристофер Ли, Ванесса Уильямс
О фильме:
Год за годом греки сражались под стенами Трои. Тысячи воинов полегли убитыми. Никто не знал, на чьей стороне боги. Греки роптали. Тогда их хитроумный царь Одиссей придумал, как проникнуть в Трою.
Через 10 лет осады они победили. А Одиссей возгордился и бросил вызов богам. Оскорбленный Посейдон, бог морей, обрек его на вечные блуждания по волнам морей, чтобы он никогда не смог достичь берегов Итаки, не увидел сына и жену.

Страна: Великобритания, Италия, Германия, США
Студия: American Zoetrope, Beta Film, Hallmark Entertainment
Продолжительность: 02:59:59
Перевод: Профессиональный (многоголосый закадровый) - Студия "Ракурс" по заказу "Екатеринбург Арт"
Файл
Кодек: AVC
Качество: DVDRip-AVC
Видео: 656x480, 1083 kbps, 23,976 fps, 0,143 Bits/(Pixel*Frame)
Звук: AAC, 48 kHz, 2 ch, 72 kbps
Субтитры: Нет

MI

Общее
Unique ID : 234211699031883505797503693625168013023 (0xB033884E9616C1D6A6BD7ED06AB8A6DF)
Complete name : F:The.Odyssey.1997.DVDRip-AVC.MegaPeer.mkv
Format : Matroska
Format version : Version 2
File size : 1,45 Гбайт
Duration : 2 ч. 59 м.
Overall bit rate : 1157 Кбит/сек
Encoded date : UTC 2017-08-05 00:06:04
Writing application : mkvmerge v14.0.0 ('Flow') 64bit
Writing library : libebml v1.3.4 + libmatroska v1.4.5
Видео
ID : 1
Format : AVC
Format/Info : Advanced Video Codec
Format profile : High@L4.1
Format settings, CABAC : Да
Format settings, ReFrames : 11 кадров
Codec ID : V_MPEG4/ISO/AVC
Duration : 2 ч. 59 м.
Bit rate : 1083 Кбит/сек
Width : 656 пикселей
Height : 480 пикселей
Display aspect ratio : 4:3
Frame rate mode : Постоянный
Frame rate : 23,976 (24000/1001) кадра/сек
Color space : YUV
Chroma subsampling : 4:2:0
Bit depth : 8 бит
Scan type : Прогрессивная
Bits/(Pixel*Frame) : 0.143
Stream size : 1,36 Гбайт (94%)
Writing library : x264 core 152 r2851 ba24899
Encoding settings : cabac=1 / ref=11 / deblock=1:-1:-1 / analyse=0x3:0x133 / me=umh / subme=11 / psy=1 / psy_rd=1.05:0.15 / mixed_ref=1 / me_range=32 / chroma_me=1 / trellis=2 / 8x8dct=1 / cqm=0 / deadzone=21,11 / fast_pskip=0 / chroma_qp_offset=-3 / threads=12 / lookahead_threads=3 / sliced_threads=0 / nr=0 / decimate=0 / interlaced=0 / bluray_compat=0 / constrained_intra=0 / bframes=14 / b_pyramid=2 / b_adapt=2 / b_bias=0 / direct=3 / weightb=1 / open_gop=0 / weightp=2 / keyint=240 / keyint_min=24 / scenecut=0 / intra_refresh=0 / rc_lookahead=60 / rc=2pass / mbtree=1 / bitrate=1083 / ratetol=1.0 / qcomp=0.60 / qpmin=0 / qpmax=51 / qpstep=4 / cplxblur=15.0 / qblur=0.5 / vbv_maxrate=50000 / vbv_bufsize=62500 / nal_hrd=none / filler=0 / ip_ratio=1.40 / aq=1:1.00
Default : Да
Forced : Нет
Аудио
ID : 2
Format : AAC
Format/Info : Advanced Audio Codec
Format profile : LC
Codec ID : A_AAC
Duration : 2 ч. 59 м.
Bit rate : 72,0 Кбит/сек
Channel(s) : 2 канала
Channel positions : Front: L R
Sampling rate : 48,0 КГц
Frame rate : 46,875 кадров/сек (1024 spf)
Compression mode : С потерями
Delay relative to video : 9 мс.
Stream size : 92,6 Мбайт (6%)
Default : Да
Forced : Нет

Скриншоты

Релиз:
[Профиль] [ЛС]
Кто просматривает тему:

Форум Тема Автор Размер
Зарубежные сериалы Американская одиссея / American Odyssey [S01] (2015) WEB-DLRip | LostFilm достали все 6.78 GB
Доисторический мир Великая одиссея человечества / Great Human Odyssey [серии 1-3 из 3] (Найоб Томпсон) [2015 г., Документальный, история, SATRip] skorpionN 2.2 GB
Доисторический мир Великая одиссея человечества / Great Human Odyssey [серии 1-3 из 3] (Найоб Томпсон) [2015 г., Документальный, история, археология, WEB-DLRip 720p] skorpionN 4.68 GB
Наука Вулканическая Одиссея / A Volcano Odyssey (Франсуа де Риберолль) [2014 г., Документальный, научно-познавательный, SATRip] skorpionN 753 MB
Фильмы 2016 года Китайская одиссея: часть 3 / A Chinese Odyssey: Part Three (2016) HDRip | L1 BOSS 1.46 GB
Фильмы 2010 года Лапландская одиссея / Lapland Odyssey / Napapiirin sankarit (Доме Карукоски / Dome Karukoski) [2010, Швеция, Финляндия, Исландия, драма, мелодрама, комедия, HDRip] MVO (Культура) painkiller 1.46 GB
Фантастика и фэнтези Лысак Сергей - Кортес 1. Одиссея адмирала (2016) MP3 Swager 311 MB
Фильмы 2011 года Одиссей / The Odyssey (1997) DVDRip | Режиссёрская версия Russian Mafia 2.18 GB
Показать сообщения:    

Текущее время: Сегодня 05:54

Часовой пояс: GMT



Вы не можете начинать темы
Вы не можете отвечать на сообщения
Вы не можете редактировать свои сообщения
Вы не можете удалять свои сообщения
Вы не можете голосовать в опросах
Вы не можете прикреплять файлы к сообщениям
Вы не можете скачивать файлы