Одиссей / Одиссея / The Odyssey (1997) DVDRip

 
Автор Сообщение

Russian Mafia ®

Пол:

Стаж: 1 год 8 месяцев

Сообщений: 4247



Награды: 10 (Подробнее)

Mega Seeder 5 (Количество: 1) Mega Seeder 1 (Количество: 1) Top Releaser 4 (Количество: 1)
Торрент-статистика

Создавать темы 27-Сен-2015 17:06

[Цитировать]

Страна: Италия, Великобритания, Германия, Греция, США
Жанр: исторический, фэнтези, драма, приключения
Год выпуска: 1997
Продолжительность: 02:23:55
Перевод: Профессиональный (многоголосый закадровый)
Cубтитры: русские (отдельно)
Оригинальная аудиодорожка: английский (отдельно)
Режиссер: Андрей Кончаловский / Andrei Konchalovsky
В ролях: Арманд Ассанте, Грета Скакки, Изабелла Росселлини, Бернадетт Питерс, Ванесса Уильямс
Описание: Год за годом греки сражались под стенами Трои. Тысячи воинов полегли убитыми. Никто не знал, на чьей стороне боги. Греки роптали. Тогда их хитроумный царь Одиссей придумал, как проникнуть в Трою.
Через 10 лет осады они победили. А Одиссей возгордился и бросил вызов богам. Оскорбленный Посейдон, бог морей, обрек его на вечные блуждания по волнам морей, чтобы он никогда не смог достичь берегов Итаки, не увидел сына и жену.
Качество видео: DVDRip | Sample
Формат видео: AVI
Исходник: DVD9 Lizard Cinema Trade
Видео: 704x528 (1.33:1), 25 fps, XviD build 65 ~1771 kbps avg, 0.19 bit/pixel
Аудио 1: 48 kHz, AC3 Dolby Digital, 3/2 (L,C,R,l,r) + LFE ch, ~384 kbps | MVO
Аудио 2: AC3, 2 ch, 48 khz, 192 kbps | Eng | отдельно
Формат субтитров: softsub (SRT)

Отчёт MediaInfo

Общее
Полное имя : E:My_ripThe.Odyssey.1997.DVDRip.MVO.[Youtracker].by.Дядя_Лёша.avi
Формат : AVI
Формат/Информация : Audio Video Interleave
Профиль формата : OpenDML
Размер файла : 2,17 Гбайт
Продолжительность : 2 ч. 23 м.
Общий поток : 2163 Кбит/сек
Программа кодирования : VirtualDubMod 1.5.10.3 | www.virtualdub-fr.org || (build 2550/release)
Библиотека кодирования : VirtualDubMod build 2550/release
Видео
Идентификатор : 0
Формат : MPEG-4 Visual
Профиль формата : Advanced Simple@L5
Параметр BVOP формата : 2
Параметр QPel формата : Нет
Параметр GMC формата : Без точки перехода
Параметр матрицы формата : Выборочная
Идентификатор кодека : XVID
Идентификатор кодека/Подсказка : XviD
Продолжительность : 2 ч. 23 м.
Битрейт : 1766 Кбит/сек
Ширина : 704 пикселя
Высота : 528 пикселей
Соотношение сторон : 4:3
Частота кадров : 25,000 кадров/сек
Цветовое пространство : YUV
Субдискретизация насыщенности : 4:2:0
Битовая глубина : 8 бит
Тип развёртки : Прогрессивная
Метод сжатия : С потерями
Бит/(Пиксели*Кадры) : 0.190
Размер потока : 1,78 Гбайт (82%)
Библиотека кодирования : XviD 65
Аудио
Идентификатор : 1
Формат : AC-3
Формат/Информация : Audio Coding 3
Расширение режима : CM (complete main)
Параметр Endianness формата : Big
Идентификатор кодека : 2000
Продолжительность : 2 ч. 23 м.
Вид битрейта : Постоянный
Битрейт : 384 Кбит/сек
Каналы : 6 каналов
Расположение каналов : Front: L C R, Side: L R, LFE
Частота : 48,0 КГц
Битовая глубина : 16 бит
Метод сжатия : С потерями
Размер потока : 395 Мбайт (18%)
Выравнивание : Разделение по промежуткам
Продолжительность промежутка : 40 мс. (1,00 видеокадр)
Время предзагрузки промежутка : 500 мс.

Скриншоты

[Профиль] [ЛС]
Кто просматривает тему:

Форум Тема Автор Размер
Зарубежные сериалы Американская одиссея / American Odyssey [S01] (2015) WEB-DLRip | LostFilm достали все 6.78 GB
Доисторический мир Великая одиссея человечества / Great Human Odyssey [серии 1-3 из 3] (Найоб Томпсон) [2015 г., Документальный, история, SATRip] skorpionN 2.2 GB
Доисторический мир Великая одиссея человечества / Great Human Odyssey [серии 1-3 из 3] (Найоб Томпсон) [2015 г., Документальный, история, археология, WEB-DLRip 720p] skorpionN 4.68 GB
Фильмы 2010 года Лапландская одиссея / Lapland Odyssey / Napapiirin sankarit (Доме Карукоски / Dome Karukoski) [2010, Швеция, Финляндия, Исландия, драма, мелодрама, комедия, HDRip] MVO (Культура) painkiller 1.46 GB
Фантастика и фэнтези Лысак Сергей - Кортес 1. Одиссея адмирала (2016) MP3 Swager 311 MB
Фильмы 2011 года Одиссей / The Odyssey (1997) DVDRip | Режиссёрская версия Russian Mafia 2.18 GB
Фильмы 2011 года Одиссей / Одиссея / The Odyssey (1997) DVDRip Russian Mafia 1.46 GB
История древнего мира Одиссея обелиска / L'Odyssée de L'obélisque (The Odyssey of the obelisk) (Olivier Lemaitre) [2014 г., Документальный, постановочный, история, SATRip] skorpionN 740 MB
Показать сообщения:    

Текущее время: Сегодня 18:01

Часовой пояс: GMT



Вы не можете начинать темы
Вы не можете отвечать на сообщения
Вы не можете редактировать свои сообщения
Вы не можете удалять свои сообщения
Вы не можете голосовать в опросах
Вы не можете прикреплять файлы к сообщениям
Вы не можете скачивать файлы