Один день конца света / In un giorno la fine (2017) WEB-DLRip | SDI Media

 
Author Message

BOSS ®

Gender:

Longevity: 4 years 10 months

Posts: 14162

Location: ODESSA



: 22 ()

Mega Seeder 5 (1) Top Seeder 3 (1) Top Keeper 4 (1)
Торрент-статистика

Post 25-Mar-2019 20:05

[Quote]

Информация о фильме
Название: Один день конца света
Оригинальное название: In un giorno la fine
Год выхода: 2017
Жанр: Ужасы, триллер
Режиссер: Дениэль Миссисчиа
В ролях: Алессандро Ройа, Каролина Крешентини, Клаудио Камилли, Эвридиче Аксэн, Бенедетта Чиматти, Бьянка Фризелли, Роберто Скотто Паглиара, Марко Манетти, Даниэль Ниси
О фильме: Клаудио Верона — молодой и циничный бизнесмен. Однажды он застревает в лифте перед важной встречей с клиентом. Он пытается позвать на помощь, но никто не откликается на его крики. В это время в городе распространяется вирус, превращающий людей в опасных зомби. Отныне лифт — самое безопасное место... Сможет ли герой вырваться из смертельной ловушки и не попасть в лапы разъяренных мертвецов?

Страна: Италия
Студия: Mompracem srl, Rai Cinema
Продолжительность: 01:38:03
Перевод: Профессиональный двухголосый | SDI Media
Файл
Качество: WEB-DLRip
Формат: AVI
Видео: 720x304 (2,40:1) / 25,000 fps / XviD build 73 ~1676 kbps avg / 0.306 bit/pixel
Аудио: Russian: Dolby Digital Audio / 48 kHz / 5.1 Ch / 448 kbps / DVO, SDI Media
Субтитры: Нет

MediaInfo

Общее
Полное имя                               : S:WEB-DL_RipIn un giorno la fine.2017.WEB-DLRip.XviD.DVO.DD.5.1.avi
Формат                                   : AVI
Формат/Информация                        : Audio Video Interleave
Размер файла                             : 1,46 Гбайт
Продолжительность                        : 1 ч. 38 м.
Общий поток                              : 2133 Кбит/сек
Программа кодирования                    : VirtualDubMod 1.5.10.3
Библиотека кодирования                   : VirtualDubMod build 2550/release
Видео
Идентификатор                            : 0
Формат                                   : MPEG-4 Visual
Профиль формата                          : Advanced Simple@L5
Настройки формата                        : BVOP1 / Custom Matrix
Параметр BVOP формата                    : 1
Параметр QPel формата                    : Нет
Параметр GMC формата                     : Без точки перехода
Параметр матрицы формата                 : Выборочная
Идентификатор кодека                     : XVID
Идентификатор кодека/Подсказка           : XviD
Продолжительность                        : 1 ч. 38 м.
Битрейт                                  : 1676 Кбит/сек
Ширина                                   : 720 пикселей
Высота                                   : 304 пикселя
Соотношение сторон                       : 2,40:1
Частота кадров                           : 25,000 кадров/сек
Цветовое пространство                    : YUV
Субдискретизация насыщенности            : 4:2:0
Битовая глубина                          : 8 бит
Тип развёртки                            : Прогрессивная
Метод сжатия                             : С потерями
Бит/(Пиксели*Кадры)                      : 0.306
Размер потока                            : 1,15 Гбайт (79%)
Библиотека кодирования                   : XviD 73
Аудио
Идентификатор                            : 1
Формат                                   : AC-3
Формат/Информация                        : Audio Coding 3
Коммерческое название                    : Dolby Digital
Идентификатор кодека                     : 2000
Продолжительность                        : 1 ч. 38 м.
Вид битрейта                             : Постоянный
Битрейт                                  : 448 Кбит/сек
Каналы                                   : 6 каналов
Channel layout                           : L R C LFE Ls Rs
Частота                                  : 48,0 КГц
Частота кадров                           : 31,250 кадров/сек (1536 SPF)
Битовая глубина                          : 16 бит
Метод сжатия                             : С потерями
Размер потока                            : 314 Мбайт (21%)
Выравнивание                             : Разделение по промежуткам
Продолжительность промежутка             : 40  мс. (1,00 видеокадр)
Время предзагрузки промежутка            : 500  мс.
Заголовок                                : DVO | SDI Media

Скриншоты


[Profile] [PM]
Кто просматривает тему:

Display posts from previous:    

The time now is: Today 20:58

All times are GMT



You cannot post new topics in this forum
You cannot reply to topics in this forum
You cannot edit your posts in this forum
You cannot delete your posts in this forum
You cannot vote in polls in this forum
You cannot attach files in this forum
You cannot download files in this forum