Один в один! [S03] (2015) HDTVRip 720р

 
Автор Сообщение

sergej644 ®

Пол:

Стаж: 4 года 11 месяцев

Сообщений: 6043

Откуда: Soviet Union



Награды: Нет

Торрент-статистика

Создавать темы 29-Май-2015 16:03

[Цитировать]

--Один в один! [S03]
Информация о фильме
Оригинальное название: Один в один!
Год выпуска: 2015
Жанр: ТВ-шоу
Выпущено: Россия / Россия HD
Ведущие: Юлия Ковальчук, Игорь Верник
О фильме: «Один в один» - невероятно зрелищное шоу и одновременно серьезнейший профессиональный вызов для его участников: артист, облик которого необходимо принять, может отличаться от участника не только возрастом, но и полом. Для зрителей же это станет настоящим праздником музыки и телевизионным развлечением самого высокого качества. Кстати, в выступления вовлечены не только участники, но также и члены жюри, ведущие и приглашенные гости! «Один в один» - российская версия популярного международного формата Your Face Sounds Familiar (Endemol), который за два года стал настоящим телевизионным феноменом в мире. Каждую неделю 10 участников проекта полностью перевоплощаются в звезд музыки, перенимая оригинальный стиль артиста от внешности и манеры двигаться до тембра голоса. Преобразиться участникам помогают специалисты по сценографии, актерскому мастерству, пародии, а также специально разработанный для шоу грим. Жюри оценивает выступления в конце каждого выпуска и выставляет баллы от 2 до 12 (по системе, принятой на конкурсе песни «Евровидение»). Также каждый участник может присудить 5 баллов за наиболее понравившийся ему номер. В финал выходят 5 лучших из лучших и именно среди них определится победитель сезона.
Файл
Качество: HDTVRip (720p)
Видео: MPEG-4 AVC, ~ 4000 Кбит/с, 1280x720
Аудио: Русский (AC3, 2 ch, 192 Кбит/с)
Продолжительность: 15 х ~ 02:35:00

Инфо-файл

General
Unique ID : 193770969674017340460249378214782890516 (0x91C6EE68AE7BD02090F594B9780AF214)
Complete name : Q:ДИСК-1Один в один. Третий сезон. Выпуск 02 от 2015.02.15_720_by kuzmichm2196.mkv
Format : Matroska
Format version : Version 2
File size : 4.55 GiB
Duration : 2h 35mn
Overall bit rate : 4 194 Kbps
Encoded date : UTC 2015-02-16 14:20:32
Writing application : mkvmerge v5.5.0 ('Healer') built on Apr 24 2012 23:47:03
Writing library : libebml v1.2.3 + libmatroska v1.3.0
Video
ID : 1
Format : AVC
Format/Info : Advanced Video Codec
Format profile : High@L4.1
Format settings, CABAC : Yes
Format settings, ReFrames : 8 frames
Codec ID : V_MPEG4/ISO/AVC
Duration : 2h 35mn
Bit rate : 4 000 Kbps
Width : 1 280 pixels
Height : 720 pixels
Display aspect ratio : 16:9
Frame rate mode : Constant
Frame rate : 25.000 fps
Color space : YUV
Chroma subsampling : 4:2:0
Bit depth : 8 bits
Scan type : Progressive
Bits/(Pixel*Frame) : 0.174
Stream size : 4.25 GiB (93%)
Writing library : x264 core 124 r2197 69a0443
Encoding settings : cabac=1 / ref=8 / deblock=1:-1:-1 / analyse=0x3:0x133 / me=umh / subme=7 / psy=1 / psy_rd=1.00:0.10 / mixed_ref=1 / me_range=16 / chroma_me=1 / trellis=2 / 8x8dct=1 / cqm=0 / deadzone=21,11 / fast_pskip=0 / chroma_qp_offset=-3 / threads=6 / sliced_threads=0 / nr=0 / decimate=1 / interlaced=0 / bluray_compat=0 / constrained_intra=0 / bframes=3 / b_pyramid=2 / b_adapt=2 / b_bias=0 / direct=3 / weightb=1 / open_gop=0 / weightp=2 / keyint=250 / keyint_min=25 / scenecut=40 / intra_refresh=0 / rc_lookahead=50 / rc=2pass / mbtree=1 / bitrate=4000 / ratetol=1.0 / qcomp=0.60 / qpmin=0 / qpmax=69 / qpstep=4 / cplxblur=20.0 / qblur=0.5 / ip_ratio=1.40 / aq=1:1.00
Default : Yes
Forced : No
Audio
ID : 2
Format : AC-3
Format/Info : Audio Coding 3
Mode extension : CM (complete main)
Format settings, Endianness : Big
Codec ID : A_AC3
Duration : 2h 35mn
Bit rate mode : Constant
Bit rate : 192 Kbps
Channel(s) : 2 channels
Channel positions : Front: L R
Sampling rate : 48.0 KHz
Bit depth : 16 bits
Compression mode : Lossy
Stream size : 213 MiB (5%)
Default : Yes
Forced : No

Скриншоты

Релиз от: kuzmichm2196
[Профиль] [ЛС]
Кто просматривает тему:

Показать сообщения:    

Текущее время: Сегодня 08:12

Часовой пояс: GMT



Вы не можете начинать темы
Вы не можете отвечать на сообщения
Вы не можете редактировать свои сообщения
Вы не можете удалять свои сообщения
Вы не можете голосовать в опросах
Вы не можете прикреплять файлы к сообщениям
Вы не можете скачивать файлы