Один выстрел / One Shot (Джон Лойд / John Lyde) [2014, США, фантастика, боевик, DVDRip] VO

 
Автор Сообщение

TorrentFilm ®

Пол:

Стаж: 2 года

Сообщений: 7741



Награды: Нет

Торрент-статистика

Создавать темы 21-Дек-2014 02:00

[Цитировать]

Один выстрел / One Shot
Страна: США
Жанр: фантастика, боевик
Год выпуска: 2014
Продолжительность: 01:31:24
Перевод: Одноголосый закадровый kon2011/zamez
Cубтитры: нет
Режиссер: Джон Лойд / John Lyde
В ролях: Кевин Сорбо, Жак Грэй, Скотт Хэнкс, Пол Хант, Мэттью Риз, Джэси Твисс и другие.
Описание: Недалёкое будущее.
Америка демократизирует очередную планету Керулан.
Бравый американский парнишка-снайпер (Мэттью Риз) , оставшийся один на поле боя, пробирается к своей базе.
Под неусыпным присмотром Командира Космических Войск (Кевин Сорбо), Кайл пересекает вражескую территорию, крошит врага в хлам и завоёвывает голубое сердце керуланки.
Доп. информация:

Перевод осуществил kon2011
Закадровый текст читал Вячеслав Замез

НЕ СМОТРИТЕ ЭТОТ ФИЛЬМ, ЕСЛИ ВАМ НЕ НАДО!
Сэмпл: http://multi-up.com/1015857
Качество видео: DVDRip ( рип ViCKY)
Формат видео: AVI
Видео: Xvid 720x392 25fps 918kbps
Аудио: MP3 48000Hz stereo 128kbps

MediaInfo

General
Complete name :One.Shot.2014.DVDRip.avi
Format : AVI
Format/Info : Audio Video Interleave
File size : 691 MiB
Duration : 1h 31mn
Overall bit rate : 1 057 Kbps
Writing application : VirtualDubMod 1.5.10.2 (build 2542/release)
Writing library : VirtualDubMod build 2542/release
Video
ID : 0
Format : MPEG-4 Visual
Format profile : Advanced Simple@L5
Format settings, BVOP : 2
Format settings, QPel : No
Format settings, GMC : No warppoints
Format settings, Matrix : Default (H.263)
Codec ID : XVID
Codec ID/Hint : XviD
Duration : 1h 31mn
Bit rate : 919 Kbps
Width : 720 pixels
Height : 392 pixels
Display aspect ratio : 1.85:1
Frame rate : 25.000 fps
Color space : YUV
Chroma subsampling : 4:2:0
Bit depth : 8 bits
Scan type : Progressive
Compression mode : Lossy
Bits/(Pixel*Frame) : 0.130
Stream size : 601 MiB (87%)
Writing library : XviD 1.2.1 (UTC 2008-12-04)
Audio
ID : 1
Format : MPEG Audio
Format version : Version 1
Format profile : Layer 3
Mode : Joint stereo
Codec ID : 55
Codec ID/Hint : MP3
Duration : 1h 31mn
Bit rate mode : Constant
Bit rate : 128 Kbps
Channel(s) : 2 channels
Sampling rate : 48.0 KHz
Compression mode : Lossy
Stream size : 83.7 MiB (12%)
Alignment : Aligned on interleaves
Interleave, duration : 40 ms (1.00 video frame)
Interleave, preload duration : 504 ms

Скриншот c названием фильма

Скриншоты

[Профиль] [ЛС]
Кто просматривает тему:

Показать сообщения:    

Текущее время: Сегодня 21:02

Часовой пояс: GMT



Вы не можете начинать темы
Вы не можете отвечать на сообщения
Вы не можете редактировать свои сообщения
Вы не можете удалять свои сообщения
Вы не можете голосовать в опросах
Вы не можете прикреплять файлы к сообщениям
Вы не можете скачивать файлы