Одиночка / Le Solitaire (1987) Blu-ray Remux 1080i от ivandubskoj | D, P, P2

 
Автор Сообщение

Russian Mafia ®

Пол:

Стаж: 1 год 8 месяцев

Сообщений: 4252



Награды: 10 (Подробнее)

Top Releaser 3 (Количество: 1) Mega Seeder 3 (Количество: 1) За внесенный вклад в развитие сайта (Количество: 1)
Торрент-статистика

Создавать темы 22-Мар-2016 16:36

[Цитировать]

Информация о фильме
Название: Одиночка
Оригинальное название: Le solitaire
Год выхода: 1987
Жанр: Боевик, триллер, драма, криминал
Режиссёр: Жак Дере
В ролях: Жан-Поль Бельмондо, Жан-Пьер Мало, Мишель Бон, Пьер Вернье, Франсуа Дюнойе, Франк Айя, Лоран Жандрон, Жан-Клод Де Горос, Ги Паннекин, Патриция Мальвуазен
О фильме: До каких границ может дойти служитель закона в борьбе с преступниками, которые границ не знают? Комиссара Стэна называли фашистом с куриными мозгами и стальными мускулами. Но он справедлив и надежен и не остановиться ни перед чем, чтобы отомстить за гибель своего напарника и друга...

Выпущено: Франция, Cerito Films, Sara Films
Продолжительность: 01:32:06
Перевод: Дублированный (Киностудия им. М. Горького), профессиональный многоголосый (Cinema Prestige), профессиональный двухголосый (НТВ+), профессиональный двухголосый (Twister)
Оригинальная аудио-дорожка: Французская
Файл
Формат: MKV
Кодек: MPEG-4 AVC
Качество: Blu-ray Remux (1080i) [Исходник: Blu-ray [Custom] 1080i AVC DD 2.0 от HDClub]
Видео: MPEG-4 AVC, 1920x1080 (16:9), 23.6 Мбит/с, 25 кадр/с, 0.456 bit/pixel
Аудио #1: Русский, Dolby AC3, 48000 Гц, 192 Кбит/с, 2 канала (Стерео) - DUB [Киностудия им. М. Горького]
Аудио #2: Русский, Dolby AC3, 48000 Гц, 192 Кбит/с, 2 канала (Стерео) - MVO [Cinema Prestige]
Аудио #3: Русский, Dolby AC3, 48000 Гц, 192 Кбит/с, 2 канала (Стерео) - DVO [НТВ+]
Аудио #4: Русский, Dolby AC3, 48000 Гц, 192 Кбит/с, 2 канала (Стерео) - DVO [Twister]
Аудио #5: Французский, Dolby AC3, 48000 Гц, 448 Кбит/с, 2 канала (Стерео) - Оригинал
Аудио #6: Французский, DTS-HD MA, 48000 Гц, 1112 Кбит/с, 1 канал (Моно) - Оригинал
Субтитры: Русские, украинские, английские, французские (Полные, SRT)
Навигация по главам: Есть

MediaInfo

General
Unique ID : 176364413968454442210962415779640973099 (0x84AE8CF407E5E55F8C9A0AE92603172B)
Complete name : Le.solitaire.1987.BDRemux.1080i.mkv
Format : Matroska
File size : 16.9 GiB
Duration : 1h 32mn
Overall bit rate : 26.3 Mbps
Movie name : Одиночка / Le solitaire (1987) Blu-ray Remux (1080i) от ivandubskoj
Encoded date : UTC 2016-01-22 06:24:48
Writing application : mkvmerge v6.1.0 ('Old Devil') built on Mar 4 2013 09:10:42
Writing library : libebml v1.3.0 + libmatroska v1.4.0
Video
ID : 1
Format : AVC
Format/Info : Advanced Video Codec
Format profile : High@L4.1
Format settings, CABAC : Yes
Format settings, ReFrames : 4 frames
Codec ID : V_MPEG4/ISO/AVC
Duration : 1h 32mn
Bit rate mode : Variable
Bit rate : 23.6 Mbps
Maximum bit rate : 35.0 Mbps
Width : 1 920 pixels
Height : 1 080 pixels
Display aspect ratio : 16:9
Frame rate : 25.000 fps
Standard : PAL
Color space : YUV
Chroma subsampling : 4:2:0
Bit depth : 8 bits
Scan type : MBAFF
Bits/(Pixel*Frame) : 0.456
Stream size : 15.2 GiB (90%)
Title : Одиночка / Le solitaire (1987)
Language : French
Color primaries : BT.709-5, BT.1361, IEC 61966-2-4, SMPTE RP177
Transfer characteristics : BT.709-5, BT.1361
Matrix coefficients : BT.709-5, BT.1361, IEC 61966-2-4 709, SMPTE RP177
Audio #1
ID : 2
Format : AC-3
Format/Info : Audio Coding 3
Mode extension : CM (complete main)
Codec ID : A_AC3
Duration : 1h 32mn
Bit rate mode : Constant
Bit rate : 192 Kbps
Channel(s) : 2 channels
Channel positions : Front: L R
Sampling rate : 48.0 KHz
Bit depth : 16 bits
Compression mode : Lossy
Stream size : 126 MiB (1%)
Title : DUB [Киностудия им. М. Горького]
Language : Russian
Audio #2
ID : 3
Format : AC-3
Format/Info : Audio Coding 3
Mode extension : CM (complete main)
Codec ID : A_AC3
Duration : 1h 32mn
Bit rate mode : Constant
Bit rate : 192 Kbps
Channel(s) : 2 channels
Channel positions : Front: L R
Sampling rate : 48.0 KHz
Bit depth : 16 bits
Compression mode : Lossy
Stream size : 126 MiB (1%)
Title : MVO [Cinema Prestige]
Language : Russian
Audio #3
ID : 4
Format : AC-3
Format/Info : Audio Coding 3
Mode extension : CM (complete main)
Codec ID : A_AC3
Duration : 1h 32mn
Bit rate mode : Constant
Bit rate : 192 Kbps
Channel(s) : 2 channels
Channel positions : Front: L R
Sampling rate : 48.0 KHz
Bit depth : 16 bits
Compression mode : Lossy
Stream size : 126 MiB (1%)
Title : DVO [НТВ+]
Language : Russian
Audio #4
ID : 5
Format : AC-3
Format/Info : Audio Coding 3
Mode extension : CM (complete main)
Codec ID : A_AC3
Duration : 1h 32mn
Bit rate mode : Constant
Bit rate : 192 Kbps
Channel(s) : 2 channels
Channel positions : Front: L R
Sampling rate : 48.0 KHz
Bit depth : 16 bits
Compression mode : Lossy
Stream size : 126 MiB (1%)
Title : DVO [Twister]
Language : Russian
Audio #5
ID : 6
Format : AC-3
Format/Info : Audio Coding 3
Mode extension : CM (complete main)
Codec ID : A_AC3
Duration : 1h 32mn
Bit rate mode : Constant
Bit rate : 448 Kbps
Channel(s) : 2 channels
Channel positions : Front: L R
Sampling rate : 48.0 KHz
Bit depth : 16 bits
Compression mode : Lossy
Stream size : 295 MiB (2%)
Title : Original
Language : French
Audio #6
ID : 7
Format : DTS
Format/Info : Digital Theater Systems
Format profile : MA / Core
Codec ID : A_DTS
Duration : 1h 32mn
Bit rate mode : Variable
Bit rate : 974 Kbps / 755 Kbps
Channel(s) : 1 channel
Channel positions : Front: C
Sampling rate : 48.0 KHz
Bit depth : 24 bits
Compression mode : Lossless / Lossy
Title : Original
Language : French
Text #1
ID : 8
Format : UTF-8
Codec ID : S_TEXT/UTF8
Codec ID/Info : UTF-8 Plain Text
Title : Full
Language : Russian
Text #2
ID : 9
Format : UTF-8
Codec ID : S_TEXT/UTF8
Codec ID/Info : UTF-8 Plain Text
Title : Full
Language : Ukrainian
Text #3
ID : 10
Format : UTF-8
Codec ID : S_TEXT/UTF8
Codec ID/Info : UTF-8 Plain Text
Title : Full
Language : English
Text #4
ID : 11
Format : UTF-8
Codec ID : S_TEXT/UTF8
Codec ID/Info : UTF-8 Plain Text
Title : Full
Language : French
Menu
00:00:00.000 : fr:Chapitre 01
00:09:10.840 : fr:Chapitre 02
00:18:43.480 : fr:Chapitre 03
00:24:02.000 : fr:Chapitre 04
00:30:31.560 : fr:Chapitre 05
00:38:46.400 : fr:Chapitre 06
00:50:38.520 : fr:Chapitre 07
01:01:39.680 : fr:Chapitre 08
01:10:20.160 : fr:Chapitre 09
01:16:31.600 : fr:Chapitre 10
01:21:40.760 : fr:Chapitre 11
01:30:11.480 : fr:Chapitre 12
01:32:05.720 : fr:Chapitre 13

Скриншоты



Автор ремукса - ivandubskoj
[Профиль] [ЛС]
Кто просматривает тему:

Форум Тема Автор Размер
Сhanson (Шансон) группа Мурка - Одинокий арестант - 2014, MP3, 320 kbps Russian Mafia 76 MB
XXXI Летние Олимпийские игры. Рио-де-Жанейро 2016 (Бразилия) XXXI Летние Олимпийские Игры. Рио-де-Жанейро (Бразилия). Гребной слалом. Мужчины. Каноэ-двойки. Женщины. Байдарки-одиночки. Квалификация [08.08] (2016) IPTVRip 720p ODESSA 2.46 GB
XXXI Летние Олимпийские игры. Рио-де-Жанейро 2016 (Бразилия) XXXI Летние Олимпийские Игры. Рио-де-Жанейро (Бразилия). Гребной слалом. Мужчины. Каноэ-одиночка. Полуфинал и Финал [09.08] (2016) IPTV 1080i BOSS 2.02 GB
Документальные HD Байкал. 180 дней одиночества / Baikal. 180 days of solitude (Флоренс Трапн, Сильвен Тессон) [2011, Документальный, HDTV 1080i] TorrentFilm 4.25 GB
Отечественные cериалы Балабол / Одинокий волк Саня [01-16 из 16] (2013) HDTV 1080i от MediaClub sergej644 68.33 GB
Отечественные cериалы Балабол / Одинокий волк Саня [01-16 из 16] (2013) HDTVRip от MediaClub sergej644 10.65 GB
Фильмы (DVD 5/9) Белеет парус одинокий (Владимир Легошин) [1937, СССР, детский, приключения, DVD5 (Custom)] + Original Rus IceStorm TorrentFilm 4.32 GB
Индийское кино В одиночестве / Alone (Бхушан Патель) [2015 г., мистика, ужасы, WEB-DLRip 720p] Magnat 2.31 GB
Показать сообщения:    

Текущее время: Сегодня 18:42

Часовой пояс: GMT



Вы не можете начинать темы
Вы не можете отвечать на сообщения
Вы не можете редактировать свои сообщения
Вы не можете удалять свои сообщения
Вы не можете голосовать в опросах
Вы не можете прикреплять файлы к сообщениям
Вы не можете скачивать файлы