Одинокий волк МакКуэйд / Lone Wolf McQuade (1983) BDRip 1080p | P, A

 
Автор Сообщение

Russian Mafia ®

Пол:

Стаж: 1 год 8 месяцев

Сообщений: 4253



Награды: 10 (Подробнее)

Top Releaser 5 (Количество: 1) Mega Seeder 5 (Количество: 1) За внесенный вклад в развитие сайта (Количество: 1)
Торрент-статистика

Создавать темы 10-Апр-2016 14:32

[Цитировать]

Информация о фильме
Название: Одинокий волк МакКуэйд
Оригинальное название: Lone Wolf McQuade
Год выпуска: 1983
Страна: США
Жанр: Боевик
Продолжительность: 01:47:11
Перевод: Профессиональный (многоголосый, закадровый), НТВ+
Перевод: Профессиональный (многоголосый, закадровый), НТВ
Перевод: Профессиональный (многоголосый, закадровый), 5 канал
Перевод: Профессиональный (многоголосый, закадровый), РТР
Перевод: Авторский (одноголосый, закадровый), А. Гаврилов
Перевод: Авторский (одноголосый, закадровый), В. Горчаков
Перевод: Авторский (одноголосый, закадровый), Л. Володарский
Перевод: Авторский (одноголосый, закадровый), Ю. Толбин
Перевод: Авторский (одноголосый, закадровый), Ю. Сербин
Перевод: Авторский (одноголосый, закадровый), А. Михалев
Субтитры: Английские
Режиссер: Стив Карвер
В ролях: Чак Норрис, Дэвид Кэрредин, Барбара Каррера, Леон Айзек Кеннеди, Роберт Белтран, Л. К. Джонс, Дэна Киммелл, Р.Г. Армстронг, Хорхе Сервера мл., Шэрон Фаррелл
Описание: «Крутого» рейнджера Маккуэйда бандиты ненавидят за беспощадность, а шеф полиции за его стиль работы - «волка-одиночки». И, в конце концов, навязывает ему нового напарника - молодого мексиканца. Им противостоит банда контрабандистов оружием во главе неким Роули - чемпионом по карате. В довершение всего, Маккуэйд влюбляется в женщину Роули Лолу. Бандиты похищают дочь рейнджера...

Файл
Качество: BDRip 1080p
Формат: MKV
Видео: MPEG4 Video (H264), 1920x1040, 23.976fps, 14.0 Mbps
Аудио #01: Русский: Dolby AC3, 48000 Hz, 2ch, 192 kbps - Многоголосый закадровый, НТВ+
Аудио #02: Русский: Dolby AC3, 48000 Hz, 2ch, 192 kbps - Многоголосый закадровый, НТВ
Аудио #03: Русский: Dolby AC3, 48000 Hz, 2ch, 192 kbps - Многоголосый закадровый, 5 канал
Аудио #04: Русский: Dolby AC3, 48000 Hz, 2ch, 192 kbps - Многоголосый закадровый, РТР
Аудио #05: Русский: Dolby AC3, 48000 Hz, 2ch, 192 kbps - Одноголосый закадровый, А. Гаврилов
Аудио #06: Русский: Dolby AC3, 48000 Hz, 2ch, 192 kbps - Одноголосый закадровый, В. Горчаков
Аудио #07: Русский: Dolby AC3, 48000 Hz, 2ch, 192 kbps - Одноголосый закадровый, Л. Володарский
Аудио #08: Русский: Dolby AC3, 48000 Hz, 2ch, 192 kbps - Одноголосый закадровый, Ю. Толбин
Аудио #09: Русский: Dolby AC3, 48000 Hz, 2ch, 192 kbps - Одноголосый закадровый, Ю. Сербин
Аудио #10: Русский: Dolby AC3, 48000 Hz, 2ch, 192 kbps - Одноголосый закадровый, А. Михалев
Аудио #11: Английский: Dolby AC3, 48000 Hz, 2ch, 192 kbps
Формат субтитров: Softsub (SRT)
Сэмпл

MediaInfo:

General
Unique ID : 178019960893270393020085359428358194532 (0x85ED65B7F6796F788F2F4D2192F54564)
Complete name : F:Torrent 21983.Lone.Wolf.McQuade.renta23.mkv
Format : Matroska
Format version : Version 4 / Version 2
File size : 12.1 GiB
Duration : 1h 47mn
Overall bit rate : 16.1 Mbps
Movie name : 1983 Одинокий волк МакКуэйд / renta23
Encoded date : UTC 2016-04-04 11:44:13
Writing application : mkvmerge v8.3.0 ('Over the Horizon') 64bit
Writing library : libebml v1.3.1 + libmatroska v1.4.2
Video
ID : 1
Format : AVC
Format/Info : Advanced Video Codec
Format profile : High@L4.1
Format settings, CABAC : Yes
Format settings, ReFrames : 4 frames
Codec ID : V_MPEG4/ISO/AVC
Duration : 1h 47mn
Bit rate : 14.0 Mbps
Width : 1 920 pixels
Height : 1 040 pixels
Display aspect ratio : 1.85:1
Frame rate mode : Constant
Frame rate : 23.976 (24000/1001) fps
Color space : YUV
Chroma subsampling : 4:2:0
Bit depth : 8 bits
Scan type : Progressive
Bits/(Pixel*Frame) : 0.292
Stream size : 10.5 GiB (87%)
Title : 1983 Одинокий волк МакКуэйд
Writing library : x264 core 146 r2538 121396c
Encoding settings : cabac=1 / ref=4 / deblock=1:-1:-1 / analyse=0x3:0x133 / me=umh / subme=11 / psy=1 / psy_rd=1.07:0.23 / mixed_ref=1 / me_range=32 / chroma_me=1 / trellis=2 / 8x8dct=1 / cqm=0 / deadzone=21,11 / fast_pskip=0 / chroma_qp_offset=-3 / threads=12 / lookahead_threads=3 / sliced_threads=0 / nr=0 / decimate=1 / interlaced=0 / bluray_compat=0 / constrained_intra=0 / bframes=12 / b_pyramid=2 / b_adapt=2 / b_bias=0 / direct=3 / weightb=1 / open_gop=0 / weightp=2 / keyint=250 / keyint_min=23 / scenecut=40 / intra_refresh=0 / rc=2pass / mbtree=0 / bitrate=14000 / ratetol=1.0 / qcomp=0.60 / qpmin=0 / qpmax=69 / qpstep=4 / cplxblur=20.0 / qblur=0.5 / ip_ratio=1.40 / pb_ratio=1.30 / aq=2:1.00
Language : English
Default : Yes
Forced : No
Audio #1
ID : 2
Format : AC-3
Format/Info : Audio Coding 3
Mode extension : CM (complete main)
Format settings, Endianness : Big
Codec ID : A_AC3
Duration : 1h 47mn
Bit rate mode : Constant
Bit rate : 192 Kbps
Channel(s) : 2 channels
Channel positions : Front: L R
Sampling rate : 48.0 KHz
Frame rate : 31.250 fps (1536 spf)
Compression mode : Lossy
Stream size : 147 MiB (1%)
Title : Многоголосый закадровый, НТВ+
Language : Russian
Default : Yes
Forced : No
Audio #2
ID : 3
Format : AC-3
Format/Info : Audio Coding 3
Mode extension : CM (complete main)
Format settings, Endianness : Big
Codec ID : A_AC3
Duration : 1h 47mn
Bit rate mode : Constant
Bit rate : 192 Kbps
Channel(s) : 2 channels
Channel positions : Front: L R
Sampling rate : 48.0 KHz
Frame rate : 31.250 fps (1536 spf)
Compression mode : Lossy
Stream size : 147 MiB (1%)
Title : Многоголосый закадровый, НТВ
Language : Russian
Default : No
Forced : No
Audio #3
ID : 4
Format : AC-3
Format/Info : Audio Coding 3
Mode extension : CM (complete main)
Format settings, Endianness : Big
Codec ID : A_AC3
Duration : 1h 47mn
Bit rate mode : Constant
Bit rate : 192 Kbps
Channel(s) : 2 channels
Channel positions : Front: L R
Sampling rate : 48.0 KHz
Frame rate : 31.250 fps (1536 spf)
Compression mode : Lossy
Stream size : 147 MiB (1%)
Title : Многоголосый закадровый, 5 канал
Language : Russian
Default : No
Forced : No
Audio #4
ID : 5
Format : AC-3
Format/Info : Audio Coding 3
Mode extension : CM (complete main)
Format settings, Endianness : Big
Codec ID : A_AC3
Duration : 1h 47mn
Bit rate mode : Constant
Bit rate : 192 Kbps
Channel(s) : 2 channels
Channel positions : Front: L R
Sampling rate : 48.0 KHz
Frame rate : 31.250 fps (1536 spf)
Compression mode : Lossy
Stream size : 147 MiB (1%)
Title : Многоголосый закадровый, РТР
Language : Russian
Default : No
Forced : No
Audio #5
ID : 6
Format : AC-3
Format/Info : Audio Coding 3
Mode extension : CM (complete main)
Format settings, Endianness : Big
Codec ID : A_AC3
Duration : 1h 47mn
Bit rate mode : Constant
Bit rate : 192 Kbps
Channel(s) : 2 channels
Channel positions : Front: L R
Sampling rate : 48.0 KHz
Frame rate : 31.250 fps (1536 spf)
Compression mode : Lossy
Stream size : 147 MiB (1%)
Title : Одноголосый закадровый, А. Гаврилов
Language : Russian
Default : No
Forced : No
Audio #6
ID : 7
Format : AC-3
Format/Info : Audio Coding 3
Mode extension : CM (complete main)
Format settings, Endianness : Big
Codec ID : A_AC3
Duration : 1h 47mn
Bit rate mode : Constant
Bit rate : 192 Kbps
Channel(s) : 2 channels
Channel positions : Front: L R
Sampling rate : 48.0 KHz
Frame rate : 31.250 fps (1536 spf)
Compression mode : Lossy
Stream size : 147 MiB (1%)
Title : Одноголосый закадровый, В. Горчаков
Language : Russian
Default : No
Forced : No
Audio #7
ID : 8
Format : AC-3
Format/Info : Audio Coding 3
Mode extension : CM (complete main)
Format settings, Endianness : Big
Codec ID : A_AC3
Duration : 1h 47mn
Bit rate mode : Constant
Bit rate : 192 Kbps
Channel(s) : 2 channels
Channel positions : Front: L R
Sampling rate : 48.0 KHz
Frame rate : 31.250 fps (1536 spf)
Compression mode : Lossy
Stream size : 147 MiB (1%)
Title : Одноголосый закадровый, Л. Володарский
Language : Russian
Default : No
Forced : No
Audio #8
ID : 9
Format : AC-3
Format/Info : Audio Coding 3
Mode extension : CM (complete main)
Format settings, Endianness : Big
Codec ID : A_AC3
Duration : 1h 47mn
Bit rate mode : Constant
Bit rate : 192 Kbps
Channel(s) : 2 channels
Channel positions : Front: L R
Sampling rate : 48.0 KHz
Frame rate : 31.250 fps (1536 spf)
Compression mode : Lossy
Stream size : 147 MiB (1%)
Title : Одноголосый закадровый, Ю. Толбин
Language : Russian
Default : No
Forced : No
Audio #9
ID : 10
Format : AC-3
Format/Info : Audio Coding 3
Mode extension : CM (complete main)
Format settings, Endianness : Big
Codec ID : A_AC3
Duration : 1h 47mn
Bit rate mode : Constant
Bit rate : 192 Kbps
Channel(s) : 2 channels
Channel positions : Front: L R
Sampling rate : 48.0 KHz
Frame rate : 31.250 fps (1536 spf)
Compression mode : Lossy
Stream size : 147 MiB (1%)
Title : Одноголосый закадровый, Ю. Сербин
Language : Russian
Default : No
Forced : No
Audio #10
ID : 11
Format : AC-3
Format/Info : Audio Coding 3
Mode extension : CM (complete main)
Format settings, Endianness : Big
Codec ID : A_AC3
Duration : 1h 47mn
Bit rate mode : Constant
Bit rate : 192 Kbps
Channel(s) : 2 channels
Channel positions : Front: L R
Sampling rate : 48.0 KHz
Frame rate : 31.250 fps (1536 spf)
Compression mode : Lossy
Stream size : 147 MiB (1%)
Title : Одноголосый закадровый, А. Михалев
Language : Russian
Default : No
Forced : No
Audio #11
ID : 12
Format : AC-3
Format/Info : Audio Coding 3
Mode extension : CM (complete main)
Format settings, Endianness : Big
Codec ID : A_AC3
Duration : 1h 47mn
Bit rate mode : Constant
Bit rate : 192 Kbps
Channel(s) : 2 channels
Channel positions : Front: L R
Sampling rate : 48.0 KHz
Frame rate : 31.250 fps (1536 spf)
Compression mode : Lossy
Stream size : 147 MiB (1%)
Language : English
Default : No
Forced : No
Text
ID : 13
Format : UTF-8
Codec ID : S_TEXT/UTF8
Codec ID/Info : UTF-8 Plain Text
Duration : 1h 42mn
Bit rate : 31 bps
Count of elements : 728
Stream size : 23.9 KiB (0%)
Language : English
Default : No
Forced : No
Menu
00:00:00.000 : :00:00:00.000
00:16:54.763 : :00:16:54.763
00:24:58.455 : :00:24:58.455
00:34:36.491 : :00:34:36.491
00:42:47.648 : :00:42:47.648
00:55:15.145 : :00:55:15.145
01:08:32.233 : :01:08:32.233
01:22:11.635 : :01:22:11.635
01:30:42.854 : :01:30:42.854
01:34:54.897 : :01:34:54.897
01:44:28.345 : :01:44:28.345

[Профиль] [ЛС]
Кто просматривает тему:

Форум Тема Автор Размер
Сhanson (Шансон) группа Мурка - Одинокий арестант - 2014, MP3, 320 kbps Russian Mafia 76 MB
XXXI Летние Олимпийские игры. Рио-де-Жанейро 2016 (Бразилия) XXXI Летние Олимпийские Игры. Рио-де-Жанейро (Бразилия). Гребной слалом. Мужчины. Каноэ-двойки. Женщины. Байдарки-одиночки. Квалификация [08.08] (2016) IPTVRip 720p ODESSA 2.46 GB
XXXI Летние Олимпийские игры. Рио-де-Жанейро 2016 (Бразилия) XXXI Летние Олимпийские Игры. Рио-де-Жанейро (Бразилия). Гребной слалом. Мужчины. Каноэ-одиночка. Полуфинал и Финал [09.08] (2016) IPTV 1080i BOSS 2.02 GB
Документальные HD Байкал. 180 дней одиночества / Baikal. 180 days of solitude (Флоренс Трапн, Сильвен Тессон) [2011, Документальный, HDTV 1080i] TorrentFilm 4.25 GB
Отечественные cериалы Балабол / Одинокий волк Саня [01-16 из 16] (2013) HDTV 1080i от MediaClub sergej644 68.33 GB
Отечественные cериалы Балабол / Одинокий волк Саня [01-16 из 16] (2013) HDTVRip от MediaClub sergej644 10.65 GB
Фильмы (DVD 5/9) Белеет парус одинокий (Владимир Легошин) [1937, СССР, детский, приключения, DVD5 (Custom)] + Original Rus IceStorm TorrentFilm 4.32 GB
Индийское кино В одиночестве / Alone (Бхушан Патель) [2015 г., мистика, ужасы, WEB-DLRip 720p] Magnat 2.31 GB
Показать сообщения:    

Текущее время: Сегодня 06:04

Часовой пояс: GMT



Вы не можете начинать темы
Вы не можете отвечать на сообщения
Вы не можете редактировать свои сообщения
Вы не можете удалять свои сообщения
Вы не можете голосовать в опросах
Вы не можете прикреплять файлы к сообщениям
Вы не можете скачивать файлы