Одержимость / In-gan-jung-dok / Obsessed (2014) BDRip 1080p от CINEMANIA | L2

 
Автор Сообщение

sergej644 ®

Пол:

Стаж: 4 года 11 месяцев

Сообщений: 6041

Откуда: Soviet Union



Награды: Нет

Торрент-статистика

Создавать темы 09-Ноя-2014 23:53

[Цитировать]

Информация о фильме
Название: Одержимость
Оригинальное название: In-gan-jung-dok / Obsessed
Год выхода: 2014
Жанр: драма
Режиссер: Тхэ-у Ким
В ролях: Сон Сын Хон, Чо Ё Чжон, Он Чжу Ван, Хе-джин Ю, Чжон Хе Чжин, Пэ Сон У, Тхэ-ку Ом, Вон-чжун Чжон, Ким Хе На
О фильме:
1969 год, война во Вьетнаме подходит к концу, офицер и герой войны — полковник Ким Чжин-Пён собирается получить звание генерала. Успехи на службе, счастливый брак, красивая жена — все это не может оставить равнодушным завистников. Но на самом деле, его привязанность к своей жене ослабла, а из-за войны он страдает от посттравматического синдрома. Однажды, Чжин-Пён сталкивается Га Хён — женой своего капитана, и влюбляется настолько сильно, что готов отказаться от всего, чего добился…

Выпущено: Корея Южная
Продолжительность: 02:12:51
Озвучивание: Любительское (двухголосое) [Green Tea]
Файл
Формат: MKV
Качество: BDRip 1080p [CHD]
Видео: 10200 kb/s, 1916х1038
Аудио: Russian: AC3, 192 kb/s (2 ch) / Korean: DTS, 1510 kb/s (6 ch)
Субтитры: English
Размер: 11.1 GB
------------
Скачать: Сэмпл
------------

Инфо-Файл

General
    Obsessed.2014.Blu.Ray.1080p.CINEMANIA.mkv
    Format : Matroska
    Format version : Version 4 / Version 2
    File size : 11.1 GiB
    Duration : 2h 12mn
    Overall bit rate : 11.9 Mbps
    Movie name : Release Group CINEMANIA
    Encoded date : UTC 2014-11-05 23:37:53
    Writing application : mkvmerge v7.3.0 ('Nouages') 64bit built on Oct 22 2014 18:53:34
    Writing library : libebml v1.3.0 + libmatroska v1.4.1
    Video
    ID : 1
    Format : AVC
    Format/Info : Advanced Video Codec
    Format profile : High@L4.1
    Format settings, CABAC : Yes
    Format settings, ReFrames : 4 frames
    Codec ID : V_MPEG4/ISO/AVC
    Duration : 2h 12mn
    Bit rate : 10.2 Mbps
    Width : 1 916 pixels
    Height : 1 038 pixels
    Display aspect ratio : 1.85:1
    Frame rate mode : Constant
    Frame rate : 23.976 fps
    Color space : YUV
    Chroma subsampling : 4:2:0
    Bit depth : 8 bits
    Scan type : Progressive
    Bits/(Pixel*Frame) : 0.214
    Stream size : 9.26 GiB (84%)
    Title : Release Group CINEMANIA
    Writing library : x264 core 142 r2431 ac76440
    Encoding settings : cabac=1 / ref=4 / deblock=1:-3:-3 / analyse=0x3:0x113 / me=umh / subme=10 / psy=1 / psy_rd=1.00:0.05 / mixed_ref=1 / me_range=32 / chroma_me=1 / trellis=2 / 8x8dct=1 / cqm=0 / deadzone=21,11 / fast_pskip=0 / chroma_qp_offset=-2 / threads=18 / lookahead_threads=1 / sliced_threads=0 / nr=0 / decimate=1 / interlaced=0 / bluray_compat=0 / constrained_intra=0 / bframes=5 / b_pyramid=2 / b_adapt=2 / b_bias=0 / direct=3 / weightb=1 / open_gop=0 / weightp=2 / keyint=250 / keyint_min=23 / scenecut=40 / intra_refresh=0 / rc=2pass / mbtree=0 / bitrate=10222 / ratetol=1.0 / qcomp=0.70 / qpmin=0 / qpmax=69 / qpstep=4 / cplxblur=20.0 / qblur=0.5 / ip_ratio=1.40 / pb_ratio=1.30 / aq=2:0.90
    Language : English
    Default : Yes
    Forced : No
    Audio #1
    ID : 2
    Format : AC-3
    Format/Info : Audio Coding 3
    Mode extension : CM (complete main)
    Format settings, Endianness : Big
    Codec ID : A_AC3
    Duration : 2h 12mn
    Bit rate mode : Constant
    Bit rate : 192 Kbps
    Channel(s) : 2 channels
    Channel positions : Front: L R
    Sampling rate : 48.0 KHz
    Bit depth : 16 bits
    Compression mode : Lossy
    Stream size : 182 MiB (2%)
    Title : Green Tea
    Language : Russian
    Default : Yes
    Forced : Yes
    Audio #2
    ID : 3
    Format : DTS
    Format/Info : Digital Theater Systems
    Mode : 16
    Format settings, Endianness : Big
    Codec ID : A_DTS
    Duration : 2h 12mn
    Bit rate mode : Constant
    Bit rate : 1 509 Kbps
    Channel(s) : 6 channels
    Channel positions : Front: L C R, Side: L R, LFE
    Sampling rate : 48.0 KHz
    Bit depth : 24 bits
    Compression mode : Lossy
    Stream size : 1.40 GiB (13%)
    Language : Korean
    Default : No
    Forced : No
    Text #2
    ID : 5
    Format : UTF-8
    Codec ID : S_TEXT/UTF8
    Codec ID/Info : UTF-8 Plain Text
    Language : English
    Default : No
    Forced : No
------------
Релиз группы:

Скриншоты

--
[Профиль] [ЛС]
Показать сообщения:    

Текущее время: Сегодня 14:52

Часовой пояс: GMT



Вы не можете начинать темы
Вы не можете отвечать на сообщения
Вы не можете редактировать свои сообщения
Вы не можете удалять свои сообщения
Вы не можете голосовать в опросах
Вы не можете прикреплять файлы к сообщениям
Вы не можете скачивать файлы