Одержимость Майкла Кинга / The Possession of Michael King (2014) BDRip [720p]

 
Автор Сообщение

sergej644 ®

Пол:

Стаж: 4 года 11 месяцев

Сообщений: 6046

Откуда: Soviet Union



Награды: Нет

Торрент-статистика

Создавать темы 18-Окт-2014 18:33

[Цитировать]

- Одержимость Майкла Кинга / The Possession of Michael King (2014) BDRip [720p]
«Зло не отпустит тебя»
- Год выпуска: 2014
Производство: США / As Is Productions, The Weinstein Company LLC
Жанр: ужасы, мистика
Режиссер: Дэвид Юн
Продюсер: Пол Брукс, Джейм Бурк, Гай Данелла
Актеры: Шэйн Джонсон, Элла Андерсон, Кара Пифко, Кристал Альварез, Томас Арана, Люк Бэйнс, Дейл Дикки, Каллен Дуглас, Майкл Рэй Эскамиллья, Рамона Дж. Фаррингтон
Описание: Главный герой фильма — режиссер-документалист, который не верит ни в Бога, ни в дьявола. Когда умирает его жена, он решает снять фильм о религии и спиритуализме и доказать, что вся мистика — это просто выдумка. В процессе съемок он встречается с демонологами, некромантами и оккультистами, которые испытывают на нем самые темные и сильные заклятия. Эти обряды пробуждают неведомые и безудержные силы зла…

Дата мировой премьеры: 14 августа 2014
Дата российской премьеры: 4 сентября 2014, «West»
Рейтинг MPAA: PG-17
Возраст: 18+
Продолжительность: 01:23:23
Перевод: Авторский (одноголосый закадровый) [А.Дольский]
Вид субтитров: Вшитые отключаемые
Язык субтитров: Английский (forced, full)
Качество: BDRip [720p] [Profile LQ]
Видео: MPEG-4 AVC/H.264, 1280x720 (16:9), 5 100 kbps, 23.976 fps
Аудио 1: Русский/Авторский (одноголосый закадровый), AC3 / 5.1 / 640 Kbps / 48.0 KHz
Аудио 2: Английский/Оригинальный, AC3 / 5.1 / 640 Kbps / 48.0 KHz-

MediaInfo

General
Unique ID                                : 175820206198068007906130717914332323849 (0x8445BD7047E5871FA3ED282953D6E009)
Complete name                            : C:\CREATE\264mod1\out\The.Possession.of.Michael.King.2014.BDRip.720p.A.NNM.mkv
Format                                   : Matroska
Format version                           : Version 4 / Version 2
File size                                : 3.75 GiB
Duration                                 : 1h 23mn
Overall bit rate                         : 6 434 Kbps
Movie name                               : The Possession of Michael King (2014)
Encoded date                             : UTC 2014-10-18 14:11:25
Writing application                      : mkvmerge v7.2.0 ('On Every Street') 64bit built on Sep 13 2014 15:52:10
Writing library                          : libebml v1.3.0 + libmatroska v1.4.1
_STATISTICS_WRITING_APP                  : mkvmerge v7.2.0 ('On Every Street') 64bit built on Sep 13 2014 15:52:10
_STATISTICS_WRITING_DATE_UTC             : 2014-10-18 14:11:25
_STATISTICS_TAGS                         : BPS DURATION NUMBER_OF_FRAMES NUMBER_OF_BYTES
DURATION                                 : 01:19:37.314000000
NUMBER_OF_FRAMES                         : 1130
NUMBER_OF_BYTES                          : 31628
Attachment                               : Yes / Yes
Video
ID                                       : 1
Format                                   : AVC
Format/Info                              : Advanced Video Codec
Format profile                           : [url=mailto:High@L4.1]High@L4.1[/url]
Format settings, CABAC                   : Yes
Format settings, ReFrames                : 9 frames
Codec ID                                 : V_MPEG4/ISO/AVC
Duration                                 : 1h 23mn
Bit rate                                 : 5 026 Kbps
Width                                    : 1 280 pixels
Height                                   : 720 pixels
Display aspect ratio                     : 16:9
Frame rate mode                          : Constant
Frame rate                               : 23.976 fps
Color space                              : YUV
Chroma subsampling                       : 4:2:0
Bit depth                                : 8 bits
Scan type                                : Progressive
Bits/(Pixel*Frame)                       : 0.227
Stream size                              : 2.93 GiB (78%)
Title                                    : The Possession of Michael King (2014)
Language                                 : English
Default                                  : Yes
Forced                                   : No
Color primaries                          : BT.709
Transfer characteristics                 : BT.709
Matrix coefficients                      : BT.709
DURATION                                 : 01:23:23.999000000
NUMBER_OF_FRAMES                         : 119976
NUMBER_OF_BYTES                          : 3222141442
_STATISTICS_WRITING_APP                  : mkvmerge v7.2.0 ('On Every Street') 64bit built on Sep 13 2014 15:52:10
_STATISTICS_WRITING_DATE_UTC             : 2014-10-18 14:11:25
_STATISTICS_TAGS                         : BPS DURATION NUMBER_OF_FRAMES NUMBER_OF_BYTES
Audio #1
ID                                       : 2
Format                                   : AC-3
Format/Info                              : Audio Coding 3
Mode extension                           : CM (complete main)
Format settings, Endianness              : Big
Codec ID                                 : A_AC3
Duration                                 : 1h 23mn
Bit rate mode                            : Constant
Bit rate                                 : 640 Kbps
Channel(s)                               : 6 channels
Channel positions                        : Front: L C R, Side: L R, LFE
Sampling rate                            : 48.0 KHz
Bit depth                                : 16 bits
Compression mode                         : Lossy
Stream size                              : 382 MiB (10%)
Title                                    : AVO [Doljskiy]
Language                                 : Russian
Default                                  : Yes
Forced                                   : No
Audio #2
ID                                       : 3
Format                                   : AC-3
Format/Info                              : Audio Coding 3
Mode extension                           : CM (complete main)
Format settings, Endianness              : Big
Codec ID                                 : A_AC3
Duration                                 : 1h 23mn
Bit rate mode                            : Constant
Bit rate                                 : 640 Kbps
Channel(s)                               : 6 channels
Channel positions                        : Front: L C R, Side: L R, LFE
Sampling rate                            : 48.0 KHz
Bit depth                                : 16 bits
Compression mode                         : Lossy
Stream size                              : 382 MiB (10%)
Title                                    : original
Language                                 : English
Default                                  : No
Forced                                   : No
Text #1
ID                                       : 4
Format                                   : UTF-8
Codec ID                                 : S_TEXT/UTF8
Codec ID/Info                            : UTF-8 Plain Text
Title                                    : Full - ENG - BD
Language                                 : English
Default                                  : No
Forced                                   : No
Text #2
ID                                       : 5
Format                                   : UTF-8
Codec ID                                 : S_TEXT/UTF8
Codec ID/Info                            : UTF-8 Plain Text
Title                                    : SDH - ENG - BD
Language                                 : English
Default                                  : No
Forced                                   : No
Menu
00:00:00.000                             : en:Chapter 01
00:08:33.471                             : en:Chapter 02
00:18:26.688                             : en:Chapter 03
00:26:15.657                             : en:Chapter 04
00:34:24.395                             : en:Chapter 05
00:42:02.645                             : en:Chapter 06
00:46:34.041                             : en:Chapter 07
00:49:06.777                             : en:Chapter 08
00:53:31.166                             : en:Chapter 09
00:59:11.965                             : en:Chapter 10
01:09:56.025                             : en:Chapter 11
01:16:42.931                             : en:Chapter 12

x264 лог

x264 [info]: frame I:707   Avg QP:13.45  size:141856
x264 [info]: frame P:25251 Avg QP:18.08  size: 45831
x264 [info]: frame B:94018 Avg QP:19.49  size: 20896
x264 [info]: consecutive B-frames:  2.8%  2.7%  5.2% 22.9% 11.3% 25.2%  7.3% 16.2%  1.3%  0.7%  0.5%  1.8%  0.6%  0.5%  1.2%
x264 [info]: mb I  I16..4: 16.9% 60.6% 22.5%
x264 [info]: mb P  I16..4:  1.7% 13.4%  1.6%  P16..4: 26.6% 30.8% 11.1%  2.6%  0.5%    skip:11.9%
x264 [info]: mb B  I16..4:  0.2%  3.2%  0.3%  B16..8: 30.5% 17.1%  3.2%  direct: 5.5%  skip:39.9%  L0:43.9% L1:44.5% BI:11.6%
x264 [info]: 8x8 transform intra:81.0% inter:52.3%
x264 [info]: direct mvs  spatial:99.7% temporal:0.3%
x264 [info]: coded y,uvDC,uvAC intra: 88.7% 76.9% 57.4% inter: 26.4% 18.3% 8.2%
x264 [info]: i16 v,h,dc,p: 26% 12% 19% 44%
x264 [info]: i8 v,h,dc,ddl,ddr,vr,hd,vl,hu:  8%  9% 11%  9% 12% 11% 13% 11% 15%
x264 [info]: i4 v,h,dc,ddl,ddr,vr,hd,vl,hu:  9% 10%  8%  9% 14% 11% 13% 10% 15%
x264 [info]: i8c dc,h,v,p: 42% 28% 14% 17%
x264 [info]: Weighted P-Frames: Y:5.5% UV:3.4%
x264 [info]: ref P L0: 51.2%  7.2% 15.6%  7.5%  5.5%  4.4%  3.8%  2.2%  2.2%  0.4%  0.0%
x264 [info]: ref B L0: 74.3% 10.5%  5.9%  2.9%  2.3%  1.9%  1.6%  0.7%
x264 [info]: ref B L1: 92.0%  8.0%
x264 [info]: kb/s:5151.31
Скриншоты:
-
Время раздачи: 24/7, до 5 скачавших.
[Профиль] [ЛС]
Показать сообщения:    

Текущее время: Сегодня 13:51

Часовой пояс: GMT



Вы не можете начинать темы
Вы не можете отвечать на сообщения
Вы не можете редактировать свои сообщения
Вы не можете удалять свои сообщения
Вы не можете голосовать в опросах
Вы не можете прикреплять файлы к сообщениям
Вы не можете скачивать файлы