Огромное небо (Владимир Самсонов) [1982, Рисованный мультфильм, SATRip]

 
Автор Сообщение

TorrentFilm ®

Пол:

Стаж: 1 год 11 месяцев

Сообщений: 7741



Награды: Нет

Торрент-статистика

Создавать темы 03-Янв-2016 00:04

[Цитировать]

Огромное небо
Страна: CCCР
Жанр: Рисованный мультфильм
Продолжительность: 00:08:41
Год выпуска: 1982
Русские субтитры: нет
Режиссёр: Владимир Самсонов
Описание: По мотивам одноименной песни на стихи Роберта Рождественского о подвиге летчиков, которые ценой жизни спасли город
Доп.материалы:
Производство : ТО “ЭКРАН”
Сценарист: Роберт Рождественский
Художник-постановщик: А. Распопов
Аниматоры: Валерий Токмаков, Борис Тузанович, Ольга Хорова, А. Распопов
Оператор: Эрнст Гаман
Композиторы: Л. Иванищенко, Кирилл Волков
Релиз группы:
Качество: SATRip
Формат: AVI
Видео: 704x528 (1.33:1), 25 fps, XviD build 65 ~2100 kbps avg, 0.23 bit/pixel
Аудио: 48 kHz, AC3 Dolby Digital, 1/0 (C) ch, ~192.00 kbps avg
Субтитры: нет

Интересные факты

6 апреля 1966 года на Як-28 совершили подвиг капитан Борис Капустин и старший лейтенант Юрий Янов. Ценой своих жизней лётчики отвели самолет с отказавшими двигателями от жилого массива г. Берлин. Посмертно герои были награждены орденами Красного Знамени, о подвиге Капустина и Янова была написана популярная песня «Огромное небо». Тела Капустина и Янова вместе с обломками самолёта были подняты из озера британскими войсками. Британцы сняли с Як-28 антенну БРЛС и подвергли её тщательному изучению.

Баллада Роберта Рождественского «Огромное небо»

Об этом, товарищ,
Не вспомнить нельзя,
В одной эскадрилье
Служили друзья,
И было на службе
И в сердце у них
Огромное небо, огромное небо,
Огромное небо – одно на двоих.
Дружили, летали
В небесной дали,
Рукою до звёзд
Дотянуться могли,
Беда подступила,
Как слёзы к глазам —
Однажды в полете, однажды в полёте,
Однажды в полете мотор отказал...
И надо бы прыгать —
Не вышел полёт!..
Но рухнет на город
Пустой самолет!
Пройдет, не оставив
Живого следа,
И тысячи жизней, и тысячи жизней,
И тысячи жизней прервутся тогда!
Мелькают кварталы,
И прыгать нельзя...
«Дотянем до леса!»-
Решили друзья.
«Подальше от города
Смерть унесём.
Пускай мы погибнем, пускай мы погибнем,
Пускай мы погибнем, но город спасём!»
Стрела самолёта
Рванулась с небес,
И вздрогнул от взрыва
Берёзовый лес!..
Не скоро поляны
Травой зарастут...
А город подумал, а город подумал,
А город подумал: «Ученья идут!»
В могиле лежат
Посреди тишины
Отличные парни
Отличной страны...
Светло и торжественно
Смотрит на них
Огромное небо, огромное небо,
Огромное небо – одно на двоих!
1967

Подробные технические данные

Format : AVIFormat/Info : Audio Video InterleaveFile size : 143 MiBDuration : 8mn 41sOverall bit rate : 2 303 KbpsWriting application : VirtualDubModRus 1.5.10.2 (build 2542/release)Copyright : Rutracker.orgComment : SATRip by dvdss
VideoID : 0Format : MPEG-4 VisualFormat profile : Advanced Simple@L5Format settings, BVOP : 2Format settings, QPel : NoFormat settings, GMC : No warppointsFormat settings, Matrix : CustomCodec ID : XVIDCodec ID/Hint : XviDDuration : 8mn 41sBit rate : 2 101 KbpsWidth : 704 pixelsHeight : 528 pixelsDisplay aspect ratio : 5:4Original display aspect ratio : 4:3Frame rate : 25.000 fpsColor space : YUVChroma subsampling : 4:2:0Bit depth : 8 bitsScan type : ProgressiveCompression mode : LossyBits/(Pixel*Frame) : 0.226Stream size : 131 MiB (91%)Writing library : XviD 65
AudioID : 1Format : AC-3Format/Info : Audio Coding 3Mode extension : CM (complete main)Format settings, Endianness : BigCodec ID : 2000Duration : 8mn 41sBit rate mode : ConstantBit rate : 192 KbpsChannel(s) : 1 channelChannel positions : Front: CSampling rate : 48.0 KHzBit depth : 16 bitsCompression mode : LossyDelay relative to video : 9msStream size : 11.9 MiB (8%)Alignment : Split accross interleavesInterleave, duration : 40 ms (1.00 video frame)Interleave, preload duration : 500 ms

Скриншоты

[Профиль] [ЛС]
Показать сообщения:    

Текущее время: Сегодня 07:00

Часовой пояс: GMT



Вы не можете начинать темы
Вы не можете отвечать на сообщения
Вы не можете редактировать свои сообщения
Вы не можете удалять свои сообщения
Вы не можете голосовать в опросах
Вы не можете прикреплять файлы к сообщениям
Вы не можете скачивать файлы