Ограм на счастье / Au bonheur des ogres (2013) ВDRip 1080р | P

 
Автор Сообщение

Russian Mafia ®

Пол:

Стаж: 1 год 8 месяцев

Сообщений: 4257



Награды: 10 (Подробнее)

За внесенный вклад в развитие сайта (Количество: 1) Top Releaser 5 (Количество: 1) Top Releaser 3 (Количество: 1)
Торрент-статистика

Создавать темы 27-Сен-2015 14:16

[Цитировать]

Название: Ограм на счастье
Оригинальное название: Au bonheur des ogres
Год выпуска: 2013
Жанр: Драма, комедия
Выпущено: Франция, Alvy Développement, Bidibul Productions, Canal+ [fr], Chapter 2
Режиссер: Николя Бери
В ролях: Рафаэль Персонас, Беренис Бежо, Эмир Кустурица, Гийом де Тонкедек, Тьерри Нёвик, Мелани Бернье, Дин Константин Гэйгани, Мариус Йелоло, Бруно Павио, Алис Поль
О фильме: Бенджамин Малуссен, рассеянный молодой человек с голубыми глазами, любит мечтать, и одевается не по моде. У него довольно редкая и специфическая профессия - Бен работает «козлом отпущения» в одном из самых престижных универмагов Парижа. В его обязанности входит выслушивать претензии недовольных клиентов, а также принимать от них жалобы. Но когда в универмаге происходят несколько происшествий, первым под подозрением оказывается Бен. Он решает провести свое собственное расследование, помогать ему в котором берется симпатичная журналистка Джулия.

Качество: ВDRip 1080р
Видео: MPEG-4 AVC, 8188 Кбит/с, 1920x800
Аудио: Русский (AC3, 2 ch, 192 Кбит/с), английский (DTS, 6 ch, 1510 Кбит/с)
Продолжительность: 01:36:45
Перевод: Профессиональный многоголосый [Первый канал]
Семпл

Скриншоты

MediaInfo

File: D:ВидеоOgram.na.s4astje.2013.P.BDRip.1080p.mkv
General
Unique ID : 210403741806418451238469533878276388661 (0x9E4A496392A24AC99EB8EBDC7D84F735)
Complete name : D:ВидеоOgram.na.s4astje.2013.P.BDRip.1080p.mkv
Format : Matroska
Format version : Version 4 / Version 2
File size : 6.68 GiB
Duration : 1h 36mn
Overall bit rate : 9 890 Kbps
Encoded date : UTC 2015-09-26 16:34:33
Writing application : mkvmerge v8.2.0 ('World of Adventure') 64bit
Writing library : libebml v1.3.1 + libmatroska v1.4.2
Video
ID : 1
Format : AVC
Format/Info : Advanced Video Codec
Format profile : High@L4.0
Format settings, CABAC : Yes
Format settings, ReFrames : 5 frames
Codec ID : V_MPEG4/ISO/AVC
Duration : 1h 36mn
Bit rate : 8 188 Kbps
Width : 1 920 pixels
Height : 800 pixels
Display aspect ratio : 2.40:1
Frame rate mode : Constant
Frame rate : 24.000 fps
Color space : YUV
Chroma subsampling : 4:2:0
Bit depth : 8 bits
Scan type : Progressive
Bits/(Pixel*Frame) : 0.222
Stream size : 5.40 GiB (81%)
Writing library : x264 core 142 r2389 956c8d8
Encoding settings : cabac=1 / ref=5 / deblock=1:0:0 / analyse=0x3:0x133 / me=umh / subme=7 / psy=1 / psy_rd=1.00:0.00 / mixed_ref=1 / me_range=16 / chroma_me=1 / trellis=1 / 8x8dct=1 / cqm=0 / deadzone=21,11 / fast_pskip=0 / chroma_qp_offset=-2 / threads=12 / lookahead_threads=2 / sliced_threads=0 / nr=0 / decimate=1 / interlaced=0 / bluray_compat=0 / constrained_intra=0 / bframes=3 / b_pyramid=2 / b_adapt=2 / b_bias=0 / direct=3 / weightb=1 / open_gop=0 / weightp=2 / keyint=250 / keyint_min=24 / scenecut=40 / intra_refresh=0 / rc_lookahead=50 / rc=2pass / mbtree=1 / bitrate=8188 / ratetol=1.0 / qcomp=0.60 / qpmin=0 / qpmax=69 / qpstep=4 / cplxblur=20.0 / qblur=0.5 / ip_ratio=1.40 / aq=1:1.00
Language : English
Default : Yes
Forced : No
Audio #1
ID : 2
Format : AC-3
Format/Info : Audio Coding 3
Mode extension : CM (complete main)
Format settings, Endianness : Big
Codec ID : A_AC3
Duration : 1h 36mn
Bit rate mode : Constant
Bit rate : 192 Kbps
Channel(s) : 2 channels
Channel positions : Front: L R
Sampling rate : 48.0 KHz
Bit depth : 16 bits
Compression mode : Lossy
Stream size : 133 MiB (2%)
Language : Russian
Default : Yes
Forced : Yes
Audio #2
ID : 3
Format : DTS
Format/Info : Digital Theater Systems
Mode : 16
Format settings, Endianness : Big
Codec ID : A_DTS
Duration : 1h 36mn
Bit rate mode : Constant
Bit rate : 1 509 Kbps
Channel(s) : 6 channels
Channel positions : Front: L C R, Side: L R, LFE
Sampling rate : 48.0 KHz
Bit depth : 24 bits
Compression mode : Lossy
Stream size : 1.02 GiB (15%)
Title : FR
Language : French
Default : No
Forced : No
Menu
00:00:00.000 : en:00:00:00.000
00:07:43.875 : en:00:07:43.875
00:12:03.875 : en:00:12:03.875
00:16:43.083 : en:00:16:43.083
00:24:29.958 : en:00:24:29.958
00:32:18.500 : en:00:32:18.500
00:36:21.042 : en:00:36:21.042
00:38:59.083 : en:00:38:59.083
00:43:27.750 : en:00:43:27.750
00:49:18.417 : en:00:49:18.417
00:56:56.333 : en:00:56:56.333
01:04:19.583 : en:01:04:19.583
01:11:34.083 : en:01:11:34.083
01:16:25.458 : en:01:16:25.458
01:27:01.792 : en:01:27:01.792
01:31:26.625 : en:01:31:26.625
[Профиль] [ЛС]
Кто просматривает тему:

Форум Тема Автор Размер
BBC BBC: Ада Лавлейс: первая леди программирования / Calculating Ada: The Countess of Computing (Nat Sharman) [2015 г., Документальный, научно-популярный, математика, HDTVRip 720p] skorpionN 1.79 GB
Компьютерная литература (Программирование) Hill K. - Эффективное программирование в Windows PowerShell [2009, PDF, RUS] TorrentFilm 899 KB
Работа с носителями информации ImgBurn 2.5.8.0 - Программа для записи дисков x86 x64 ENG + RUS [16 Июня 2013] TorrentFilm 3 MB
Разное LuckyPatcher 4.4.6 - Патчер к большинству программ и игр (15.08.14) [Ru/Multi] sergej644 4 MB
Конверторы OpenCloner UltraBox v1.50 Build 210 RePack by WYLEK [2015,Rus] (Коллекция программ 6-в-1) sergej644 89 MB
Windows 7 Windows 7 Ultimate SP1 х86/х64 by Loginvovchyk (02.2015) (RUS) [с программами и без..] MOTrOSS 18.12 GB
XXXI Летние Олимпийские игры. Рио-де-Жанейро 2016 (Бразилия) XXXI Летние Олимпийские Игры. Рио-де-Жанейро (Бразилия). Синхронное плавание. Группы. Произвольная программа. Финал. + Награждения [19.08] (2016) IPTV 1080i достали все 4.98 GB
XXXI Летние Олимпийские игры. Рио-де-Жанейро 2016 (Бразилия) XXXI Летние Олимпийские Игры. Рио-де-Жанейро (Бразилия). Синхронное плавание. Группы. Техническая программа. Финал [18.08] (2016) IPTV BOSS 1.23 GB
Показать сообщения:    

Текущее время: Сегодня 16:26

Часовой пояс: GMT



Вы не можете начинать темы
Вы не можете отвечать на сообщения
Вы не можете редактировать свои сообщения
Вы не можете удалять свои сообщения
Вы не можете голосовать в опросах
Вы не можете прикреплять файлы к сообщениям
Вы не можете скачивать файлы